1. Meet.Me.in.the.Bathroom.2022.720p.WEB-DL.DD5.1.H.264-SMURF.mkv
  2. General
  3. Unique ID                                : 195260803815162961988242120830632101443 (0x92E5DCE73A9F0FE616197624CD1C8643)
  4. Complete name                            : D:\Meet.Me.in.the.Bathroom.2022.720p.WEB-DL.DD5.1.H.264-SMURF.mkv
  5. Format                                   : Matroska
  6. Format version                           : Version 4
  7. File size                                : 3.15 GiB
  8. Duration                                 : 1 h 47 min
  9. Overall bit rate                         : 4 181 kb/s
  10. Writing application                      : mkvmerge v72.0.0 ('Minuano (Six-eight)') 64-bit
  11. Writing library                          : libebml v1.4.4 + libmatroska v1.7.1
  12.  
  13. Video
  14. ID                                       : 1
  15. Format                                   : AVC
  16. Format/Info                              : Advanced Video Codec
  17. Format profile                           : High@L3.1
  18. Format settings                          : CABAC / 5 Ref Frames
  19. Format settings, CABAC                   : Yes
  20. Format settings, Reference frames        : 5 frames
  21. Codec ID                                 : V_MPEG4/ISO/AVC
  22. Duration                                 : 1 h 47 min
  23. Bit rate                                 : 3 794 kb/s
  24. Width                                    : 1 280 pixels
  25. Height                                   : 720 pixels
  26. Display aspect ratio                     : 16:9
  27. Frame rate mode                          : Constant
  28. Frame rate                               : 23.976 (24000/1001) FPS
  29. Color space                              : YUV
  30. Chroma subsampling                       : 4:2:0
  31. Bit depth                                : 8 bits
  32. Scan type                                : Progressive
  33. Bits/(Pixel*Frame)                       : 0.172
  34. Stream size                              : 2.86 GiB (91%)
  35. Language                                 : English
  36. Default                                  : Yes
  37. Forced                                   : No
  38. Color range                              : Limited
  39. Color primaries                          : BT.709
  40. Transfer characteristics                 : BT.709
  41. Matrix coefficients                      : BT.709
  42.  
  43. Audio
  44. ID                                       : 2
  45. Format                                   : AC-3
  46. Format/Info                              : Audio Coding 3
  47. Commercial name                          : Dolby Digital
  48. Codec ID                                 : A_AC3
  49. Duration                                 : 1 h 47 min
  50. Bit rate mode                            : Constant
  51. Bit rate                                 : 384 kb/s
  52. Channel(s)                               : 6 channels
  53. Channel layout                           : L R C LFE Ls Rs
  54. Sampling rate                            : 48.0 kHz
  55. Frame rate                               : 31.250 FPS (1536 SPF)
  56. Bit depth                                : 16 bits
  57. Compression mode                         : Lossy
  58. Stream size                              : 296 MiB (9%)
  59. Language                                 : English
  60. Service kind                             : Complete Main
  61. Default                                  : Yes
  62. Forced                                   : No
  63.  
  64. Text #1
  65. ID                                       : 3
  66. Format                                   : UTF-8
  67. Codec ID                                 : S_TEXT/UTF8
  68. Codec ID/Info                            : UTF-8 Plain Text
  69. Duration                                 : 1 h 44 min
  70. Bit rate                                 : 77 b/s
  71. Count of elements                        : 1230
  72. Stream size                              : 58.9 KiB (0%)
  73. Language                                 : English
  74. Default                                  : No
  75. Forced                                   : No
  76.  
  77. Text #2
  78. ID                                       : 4
  79. Format                                   : UTF-8
  80. Codec ID                                 : S_TEXT/UTF8
  81. Codec ID/Info                            : UTF-8 Plain Text
  82. Duration                                 : 1 h 44 min
  83. Bit rate                                 : 83 b/s
  84. Count of elements                        : 1450
  85. Stream size                              : 64.5 KiB (0%)
  86. Title                                    : SDH
  87. Language                                 : English
  88. Default                                  : No
  89. Forced                                   : No
  90.  
  91.  
  92.