1. The.Ice.Age.Adventures.of.Buck.Wild.2022.1080p.DSNP.WEBRip.DD5.1.X.264-EVO.mkv
  2. General
  3. Unique ID                                : 285718992216170005506396397867500974876 (0xD6F379ED6A6D405A9E716D7D80E6331C)
  4. Complete name                            : D:\The.Ice.Age.Adventures.of.Buck.Wild.2022.1080p.DSNP.WEBRip.DD5.1.X.264-EVO.mkv
  5. Format                                   : Matroska
  6. Format version                           : Version 4
  7. File size                                : 1.46 GiB
  8. Duration                                 : 1 h 21 min
  9. Overall bit rate                         : 2 584 kb/s
  10. Movie name                               : EVO
  11. Encoded date                             : UTC 2022-01-28 21:09:20
  12. Writing application                      : mkvmerge v35.0.0 ('All The Love In The World') 64-bit
  13. Writing library                          : libebml v1.3.9 + libmatroska v1.5.2
  14.  
  15. Video
  16. ID                                       : 1
  17. Format                                   : AVC
  18. Format/Info                              : Advanced Video Codec
  19. Format profile                           : High@L4
  20. Format settings                          : CABAC / 4 Ref Frames
  21. Format settings, CABAC                   : Yes
  22. Format settings, Reference frames        : 4 frames
  23. Codec ID                                 : V_MPEG4/ISO/AVC
  24. Duration                                 : 1 h 21 min
  25. Bit rate                                 : 2 200 kb/s
  26. Width                                    : 1 920 pixels
  27. Height                                   : 1 080 pixels
  28. Display aspect ratio                     : 16:9
  29. Frame rate mode                          : Constant
  30. Frame rate                               : 23.976 (24000/1001) FPS
  31. Color space                              : YUV
  32. Chroma subsampling                       : 4:2:0
  33. Bit depth                                : 8 bits
  34. Scan type                                : Progressive
  35. Bits/(Pixel*Frame)                       : 0.044
  36. Stream size                              : 1.25 GiB (85%)
  37. Writing library                          : x264 core 164 r3079 d9a19f0
  38. Encoding settings                        : cabac=1 / ref=2 / deblock=1:0:0 / analyse=0x3:0x113 / me=hex / subme=6 / psy=1 / psy_rd=1.00:0.00 / mixed_ref=1 / me_range=16 / chroma_me=1 / trellis=1 / 8x8dct=1 / cqm=0 / deadzone=21,11 / fast_pskip=1 / chroma_qp_offset=-2 / threads=24 / lookahead_threads=4 / sliced_threads=0 / nr=0 / decimate=1 / interlaced=0 / bluray_compat=0 / constrained_intra=0 / bframes=3 / b_pyramid=2 / b_adapt=1 / b_bias=0 / direct=1 / weightb=1 / open_gop=0 / weightp=1 / keyint=250 / keyint_min=23 / scenecut=40 / intra_refresh=0 / rc_lookahead=30 / rc=2pass / mbtree=1 / bitrate=2200 / ratetol=1.0 / qcomp=0.60 / qpmin=0 / qpmax=69 / qpstep=4 / cplxblur=20.0 / qblur=0.5 / ip_ratio=1.40 / aq=1:1.00
  39. Default                                  : Yes
  40. Forced                                   : No
  41. Color range                              : Limited
  42. Color primaries                          : BT.709
  43. Transfer characteristics                 : BT.709
  44. Matrix coefficients                      : BT.709
  45.  
  46. Audio
  47. ID                                       : 2
  48. Format                                   : AC-3
  49. Format/Info                              : Audio Coding 3
  50. Commercial name                          : Dolby Digital
  51. Codec ID                                 : A_AC3
  52. Duration                                 : 1 h 21 min
  53. Bit rate mode                            : Constant
  54. Bit rate                                 : 384 kb/s
  55. Channel(s)                               : 6 channels
  56. Channel layout                           : L R C LFE Ls Rs
  57. Sampling rate                            : 48.0 kHz
  58. Frame rate                               : 31.250 FPS (1536 SPF)
  59. Bit depth                                : 16 bits
  60. Compression mode                         : Lossy
  61. Delay relative to video                  : -5 ms
  62. Stream size                              : 223 MiB (15%)
  63. Language                                 : English
  64. Service kind                             : Complete Main
  65. Default                                  : Yes
  66. Forced                                   : No
  67.  
  68.  
  69.