1. Ardal.OHanlon.Tomb.Raider.720p.WEB.X264-NGP.mp4
  2. General
  3. Complete name                            : D:\Ardal.OHanlon.Tomb.Raider.720p.WEB.X264-NGP.mp4
  4. Format                                   : MPEG-4
  5. Format profile                           : Base Media / Version 2
  6. Codec ID                                 : mp42 (isom/iso2/avc1/mp41)
  7. File size                                : 2.14 GiB
  8. Duration                                 : 59 min 1 s
  9. Overall bit rate mode                    : Variable
  10. Overall bit rate                         : 5 203 kb/s
  11. Collection                               : Ardal O'Hanlon: Tomb Raider
  12. Album                                    : Ardal O'Hanlon: Tomb Raider
  13. Album/Performer                          : BBC TV
  14. Track name                               : Ardal O'Hanlon: Tomb Raider
  15. Grouping                                 : Factual,History,Documentaries
  16. Performer                                : BBC One
  17. Composer                                 : BBC iPlayer
  18. Genre                                    : Factual
  19. ContentType                              : TV Show
  20. Description                              : Ardal O'Hanlon explores a 1930s quest to find the first Irish using archaeology.
  21. Recorded date                            : UTC 2022-05-09 21:40:00
  22. Tagged date                              : UTC 2022-08-05 20:28:57
  23. Copyright                                : 2022 British Broadcasting Corporation, all rights reserved
  24. Cover                                    : Yes
  25. Lyrics                                   : The story of an epic 1930s quest to find the origins of the earliest Irish men and women on the island of Ireland using archaeology. Ardal goes back to world-famous archaeological sites to see how Ireland had some of the most important finds in Europe at the time.  /  / Further beneath the surface, Ardal discovers how both in Northern Ireland and what was then called the Irish Free State, archaeology was being used as an important tool for nation-building, as both states forged new identities in the wake of Partition. He unravels a forgotten time period, when a team of Americans from Harvard University, a Nazi archaeologist from Austria and a Welsh geography professor based in Belfast dug up ancient sites across the country.  /  / Their pioneering work laid the foundation for modern archaeology in Ireland, north and south, and yet is largely a forgotten story. Through Ardal's journey, the film rediscovers this strange 1930s tale but also ends up answering some of Ardal's deepest questions about the Celts, and ultimately, what it means to be Irish. /  / PLAY: https://www.bbc.co.uk/iplayer/episode/m0017b0b /  / INFO: https://www.bbc.co.uk/programmes/m0017b0b
  26. Comment                                  : Ardal O'Hanlon explores a 1930s quest to find the first Irish using archaeology.
  27. TVNetworkName                            : BBC One
  28. Part_ID                                  : 202205092240
  29. LongDescription                          : The story of an epic 1930s quest to find the origins of the earliest Irish men and women on the island of Ireland using archaeology. Ardal goes back to world-famous archaeological sites to see how Ireland had some of the most important finds in Europe at the time.  /  / Further beneath the surface, Ardal discovers how both in Northern Ireland and what was then called the Irish Free State, archaeology was being used as an important tool for nation-building, as both states forged new identities in the wake of Partition. He unravels a forgotten time period, when a team of Americans from Harvard University, a Nazi archaeologist from Austria and a Welsh geography professor based in Belfast dug up ancient sites across the country.  /  / Their pioneering work laid the foundation for modern archaeology in Ireland, north and south, and yet is largely a forgotten story. Through Ardal's journey, the film rediscovers this strange 1930s tale but also ends up answering some of Ardal's deepest questions about the Celts, and ultimately, what it means to be Irish. /  / PLAY: https://www.bbc.co.uk/iplayer/episode/m0017b0b /  / INFO: https://www.bbc.co.uk/programmes/m0017b0b
  30. HDVideo                                  : Yes
  31.  
  32. Video
  33. ID                                       : 1
  34. Format                                   : AVC
  35. Format/Info                              : Advanced Video Codec
  36. Format profile                           : High@L3.2
  37. Format settings                          : CABAC / 4 Ref Frames
  38. Format settings, CABAC                   : Yes
  39. Format settings, Reference frames        : 4 frames
  40. Codec ID                                 : avc1
  41. Codec ID/Info                            : Advanced Video Coding
  42. Duration                                 : 59 min 1 s
  43. Bit rate mode                            : Variable
  44. Bit rate                                 : 5 055 kb/s
  45. Maximum bit rate                         : 7 605 kb/s
  46. Width                                    : 1 280 pixels
  47. Height                                   : 720 pixels
  48. Display aspect ratio                     : 16:9
  49. Frame rate mode                          : Variable
  50. Frame rate                               : 50.000 FPS
  51. Minimum frame rate                       : 25.000 FPS
  52. Maximum frame rate                       : 90 000.000 FPS
  53. Color space                              : YUV
  54. Chroma subsampling                       : 4:2:0
  55. Bit depth                                : 8 bits
  56. Scan type                                : Progressive
  57. Bits/(Pixel*Frame)                       : 0.110
  58. Stream size                              : 2.08 GiB (97%)
  59. Language                                 : English
  60. Color range                              : Limited
  61. Color primaries                          : BT.709
  62. Transfer characteristics                 : BT.709
  63. Matrix coefficients                      : BT.709
  64. Codec configuration box                  : avcC
  65.  
  66. Audio
  67. ID                                       : 2
  68. Format                                   : AAC LC
  69. Format/Info                              : Advanced Audio Codec Low Complexity
  70. Codec ID                                 : mp4a-40-2
  71. Duration                                 : 59 min 1 s
  72. Bit rate mode                            : Variable
  73. Bit rate                                 : 128 kb/s
  74. Maximum bit rate                         : 132 kb/s
  75. Channel(s)                               : 2 channels
  76. Channel layout                           : L R
  77. Sampling rate                            : 48.0 kHz
  78. Frame rate                               : 46.875 FPS (1024 SPF)
  79. Compression mode                         : Lossy
  80. Stream size                              : 54.0 MiB (2%)
  81. Language                                 : English
  82. Default                                  : Yes
  83. Alternate group                          : 1
  84. tagc                                     : public.main-program-content
  85.  
  86. Text
  87. ID                                       : 3
  88. Format                                   : Timed Text
  89. Muxing mode                              : sbtl
  90. Codec ID                                 : tx3g
  91. Duration                                 : 58 min 33 s
  92. Bit rate mode                            : Variable
  93. Bit rate                                 : 148 b/s
  94. Stream size                              : 63.6 KiB (0%)
  95. Language                                 : English
  96. Default                                  : Yes
  97. Forced                                   : No
  98. Alternate group                          : 2
  99. Encoded date                             : UTC 2022-08-05 20:28:57
  100. Tagged date                              : UTC 2022-08-05 20:28:57
  101. tagc                                     : public.main-program-content
  102.  
  103.  
  104.