1. Butter.2.Four.Wheel.Flavored.2021.1080p.WEB-DL.DDP2.0.H.264-ISA.mkv
  2. General
  3. Unique ID                                : 228531997780857354142940506858024714389 (0xABEDA96A4310BF58F4F3CFA1E919C095)
  4. Complete name                            : D:\Butter.2.Four.Wheel.Flavored.2021.1080p.WEB-DL.DDP2.0.H.264-ISA.mkv
  5. Format                                   : Matroska
  6. Format version                           : Version 4
  7. File size                                : 3.77 GiB
  8. Duration                                 : 59 min 47 s
  9. Overall bit rate                         : 9 037 kb/s
  10. Movie name                               : Butter 2: Four Wheel Flavored (2021)
  11. Encoded date                             : UTC 2022-08-30 13:13:26
  12. Writing application                      : mkvmerge v70.0.0 ('Caught A Lite Sneeze') 64-bit
  13. Writing library                          : libebml v1.4.2 + libmatroska v1.6.4
  14. IMDB                                     : tt21944288
  15. TMDB                                     : movie/1018863
  16.  
  17. Video
  18. ID                                       : 1
  19. Format                                   : AVC
  20. Format/Info                              : Advanced Video Codec
  21. Format profile                           : High@L4
  22. Format settings                          : CABAC / 4 Ref Frames
  23. Format settings, CABAC                   : Yes
  24. Format settings, Reference frames        : 4 frames
  25. Codec ID                                 : V_MPEG4/ISO/AVC
  26. Duration                                 : 59 min 47 s
  27. Bit rate mode                            : Constant
  28. Bit rate                                 : 8 811 kb/s
  29. Nominal bit rate                         : 10 000 kb/s
  30. Width                                    : 1 920 pixels
  31. Height                                   : 1 080 pixels
  32. Display aspect ratio                     : 16:9
  33. Frame rate mode                          : Constant
  34. Frame rate                               : 23.976 (24000/1001) FPS
  35. Color space                              : YUV
  36. Chroma subsampling                       : 4:2:0
  37. Bit depth                                : 8 bits
  38. Scan type                                : Progressive
  39. Bits/(Pixel*Frame)                       : 0.177
  40. Stream size                              : 3.68 GiB (97%)
  41. Default                                  : Yes
  42. Forced                                   : No
  43. Color range                              : Limited
  44. Color primaries                          : BT.709
  45. Transfer characteristics                 : BT.709
  46. Matrix coefficients                      : BT.709
  47.  
  48. Audio
  49. ID                                       : 2
  50. Format                                   : E-AC-3
  51. Format/Info                              : Enhanced AC-3
  52. Commercial name                          : Dolby Digital Plus
  53. Codec ID                                 : A_EAC3
  54. Duration                                 : 59 min 47 s
  55. Bit rate mode                            : Constant
  56. Bit rate                                 : 224 kb/s
  57. Channel(s)                               : 2 channels
  58. Channel layout                           : L R
  59. Sampling rate                            : 48.0 kHz
  60. Frame rate                               : 31.250 FPS (1536 SPF)
  61. Compression mode                         : Lossy
  62. Stream size                              : 95.8 MiB (2%)
  63. Language                                 : English
  64. Service kind                             : Complete Main
  65. Default                                  : Yes
  66. Forced                                   : No
  67.  
  68. Text #1
  69. ID                                       : 3
  70. Format                                   : UTF-8
  71. Codec ID                                 : S_TEXT/UTF8
  72. Codec ID/Info                            : UTF-8 Plain Text
  73. Duration                                 : 59 min 25 s
  74. Bit rate                                 : 65 b/s
  75. Count of elements                        : 702
  76. Stream size                              : 28.6 KiB (0%)
  77. Language                                 : English
  78. Default                                  : No
  79. Forced                                   : No
  80.  
  81. Text #2
  82. ID                                       : 4
  83. Format                                   : UTF-8
  84. Codec ID                                 : S_TEXT/UTF8
  85. Codec ID/Info                            : UTF-8 Plain Text
  86. Duration                                 : 59 min 25 s
  87. Bit rate                                 : 69 b/s
  88. Count of elements                        : 749
  89. Stream size                              : 30.1 KiB (0%)
  90. Title                                    : SDH
  91. Language                                 : English
  92. Default                                  : No
  93. Forced                                   : No
  94.  
  95.  
  96.