1. The.Last.Dolphin.King.2022.1080p.NF.WEB-DL.DUAL.DDP5.1.H.264-SMURF.mkv
  2. General
  3. Unique ID                                : 142765869910638268152092604162214011936 (0x6B67B4D5F53BA0032B0CD974525D2420)
  4. Complete name                            : D:\The.Last.Dolphin.King.2022.1080p.NF.WEB-DL.DUAL.DDP5.1.H.264-SMURF.mkv
  5. Format                                   : Matroska
  6. Format version                           : Version 4
  7. File size                                : 5.70 GiB
  8. Duration                                 : 1 h 34 min
  9. Overall bit rate mode                    : Variable
  10. Overall bit rate                         : 8 666 kb/s
  11. Writing application                      : mkvmerge v72.0.0 ('Minuano (Six-eight)') 64-bit
  12. Writing library                          : libebml v1.4.4 + libmatroska v1.7.1
  13.  
  14. Video
  15. ID                                       : 1
  16. Format                                   : AVC
  17. Format/Info                              : Advanced Video Codec
  18. Format profile                           : High@L4
  19. Format settings                          : CABAC / 4 Ref Frames
  20. Format settings, CABAC                   : Yes
  21. Format settings, Reference frames        : 4 frames
  22. Codec ID                                 : V_MPEG4/ISO/AVC
  23. Duration                                 : 1 h 34 min
  24. Bit rate mode                            : Variable
  25. Bit rate                                 : 7 380 kb/s
  26. Maximum bit rate                         : 20.0 Mb/s
  27. Width                                    : 1 920 pixels
  28. Height                                   : 1 080 pixels
  29. Display aspect ratio                     : 16:9
  30. Frame rate mode                          : Constant
  31. Frame rate                               : 25.000 FPS
  32. Color space                              : YUV
  33. Chroma subsampling                       : 4:2:0
  34. Bit depth                                : 8 bits
  35. Scan type                                : Progressive
  36. Bits/(Pixel*Frame)                       : 0.142
  37. Stream size                              : 4.85 GiB (85%)
  38. Writing library                          : x264 core 148 r2727 7d026e8
  39. Encoding settings                        : cabac=1 / ref=4 / deblock=1:0:0 / analyse=0x3:0x111 / me=umh / subme=10 / psy=1 / psy_rd=1.00:0.00 / mixed_ref=1 / me_range=120 / chroma_me=1 / trellis=2 / 8x8dct=1 / cqm=0 / deadzone=21,11 / fast_pskip=1 / chroma_qp_offset=-2 / threads=8 / lookahead_threads=2 / sliced_threads=0 / nr=0 / decimate=1 / interlaced=0 / bluray_compat=0 / stitchable=1 / constrained_intra=0 / bframes=16 / b_pyramid=2 / b_adapt=2 / b_bias=0 / direct=3 / weightb=1 / open_gop=0 / weightp=2 / keyint=250 / keyint_min=126 / scenecut=0 / intra_refresh=0 / rc_lookahead=250 / rc=crf / mbtree=1 / crf=20.0 / qcomp=0.50 / qpmin=6 / qpmax=51 / qpstep=4 / vbv_maxrate=20000 / vbv_bufsize=25000 / crf_max=0.0 / nal_hrd=vbr / filler=0 / ip_ratio=1.40 / aq=1:0.80
  40. Language                                 : Spanish
  41. Default                                  : Yes
  42. Forced                                   : No
  43.  
  44. Audio #1
  45. ID                                       : 2
  46. Format                                   : E-AC-3
  47. Format/Info                              : Enhanced AC-3
  48. Commercial name                          : Dolby Digital Plus
  49. Codec ID                                 : A_EAC3
  50. Duration                                 : 1 h 34 min
  51. Bit rate mode                            : Constant
  52. Bit rate                                 : 640 kb/s
  53. Channel(s)                               : 6 channels
  54. Channel layout                           : L R C LFE Ls Rs
  55. Sampling rate                            : 48.0 kHz
  56. Frame rate                               : 31.250 FPS (1536 SPF)
  57. Compression mode                         : Lossy
  58. Stream size                              : 431 MiB (7%)
  59. Language                                 : Spanish
  60. Service kind                             : Complete Main
  61. Default                                  : Yes
  62. Forced                                   : No
  63.  
  64. Audio #2
  65. ID                                       : 3
  66. Format                                   : E-AC-3
  67. Format/Info                              : Enhanced AC-3
  68. Commercial name                          : Dolby Digital Plus
  69. Codec ID                                 : A_EAC3
  70. Duration                                 : 1 h 34 min
  71. Bit rate mode                            : Constant
  72. Bit rate                                 : 640 kb/s
  73. Channel(s)                               : 6 channels
  74. Channel layout                           : L R C LFE Ls Rs
  75. Sampling rate                            : 48.0 kHz
  76. Frame rate                               : 31.250 FPS (1536 SPF)
  77. Compression mode                         : Lossy
  78. Stream size                              : 431 MiB (7%)
  79. Language                                 : English
  80. Service kind                             : Complete Main
  81. Default                                  : No
  82. Forced                                   : No
  83.  
  84. Text #1
  85. ID                                       : 4
  86. Format                                   : UTF-8
  87. Codec ID                                 : S_TEXT/UTF8
  88. Codec ID/Info                            : UTF-8 Plain Text
  89. Duration                                 : 1 h 30 min
  90. Bit rate                                 : 90 b/s
  91. Count of elements                        : 1410
  92. Stream size                              : 60.3 KiB (0%)
  93. Language                                 : Spanish
  94. Default                                  : No
  95. Forced                                   : No
  96.  
  97. Text #2
  98. ID                                       : 5
  99. Format                                   : UTF-8
  100. Codec ID                                 : S_TEXT/UTF8
  101. Codec ID/Info                            : UTF-8 Plain Text
  102. Duration                                 : 1 h 30 min
  103. Bit rate                                 : 98 b/s
  104. Count of elements                        : 1503
  105. Stream size                              : 65.1 KiB (0%)
  106. Title                                    : SDH
  107. Language                                 : Spanish
  108. Default                                  : No
  109. Forced                                   : No
  110.  
  111. Text #3
  112. ID                                       : 6
  113. Format                                   : UTF-8
  114. Codec ID                                 : S_TEXT/UTF8
  115. Codec ID/Info                            : UTF-8 Plain Text
  116. Duration                                 : 1 h 30 min
  117. Bit rate                                 : 13 b/s
  118. Count of elements                        : 293
  119. Stream size                              : 9.20 KiB (0%)
  120. Title                                    : Forced
  121. Language                                 : English
  122. Default                                  : No
  123. Forced                                   : Yes
  124.  
  125. Text #4
  126. ID                                       : 7
  127. Format                                   : UTF-8
  128. Codec ID                                 : S_TEXT/UTF8
  129. Codec ID/Info                            : UTF-8 Plain Text
  130. Duration                                 : 1 h 31 min
  131. Bit rate                                 : 81 b/s
  132. Count of elements                        : 1467
  133. Stream size                              : 54.6 KiB (0%)
  134. Language                                 : English
  135. Default                                  : No
  136. Forced                                   : No
  137.  
  138. Text #5
  139. ID                                       : 8
  140. Format                                   : UTF-8
  141. Codec ID                                 : S_TEXT/UTF8
  142. Codec ID/Info                            : UTF-8 Plain Text
  143. Duration                                 : 1 h 32 min
  144. Bit rate                                 : 92 b/s
  145. Count of elements                        : 1647
  146. Stream size                              : 62.7 KiB (0%)
  147. Title                                    : SDH
  148. Language                                 : English
  149. Default                                  : No
  150. Forced                                   : No
  151.  
  152. Text #6
  153. ID                                       : 9
  154. Format                                   : UTF-8
  155. Codec ID                                 : S_TEXT/UTF8
  156. Codec ID/Info                            : UTF-8 Plain Text
  157. Duration                                 : 1 h 31 min
  158. Bit rate                                 : 140 b/s
  159. Count of elements                        : 1439
  160. Stream size                              : 94.0 KiB (0%)
  161. Language                                 : Arabic
  162. Default                                  : No
  163. Forced                                   : No
  164.  
  165. Text #7
  166. ID                                       : 10
  167. Format                                   : UTF-8
  168. Codec ID                                 : S_TEXT/UTF8
  169. Codec ID/Info                            : UTF-8 Plain Text
  170. Duration                                 : 1 h 33 min
  171. Bit rate                                 : 76 b/s
  172. Count of elements                        : 1420
  173. Stream size                              : 51.9 KiB (0%)
  174. Language                                 : Czech
  175. Default                                  : No
  176. Forced                                   : No
  177.  
  178. Text #8
  179. ID                                       : 11
  180. Format                                   : UTF-8
  181. Codec ID                                 : S_TEXT/UTF8
  182. Codec ID/Info                            : UTF-8 Plain Text
  183. Duration                                 : 1 h 32 min
  184. Bit rate                                 : 77 b/s
  185. Count of elements                        : 1405
  186. Stream size                              : 53.0 KiB (0%)
  187. Language                                 : Danish
  188. Default                                  : No
  189. Forced                                   : No
  190.  
  191. Text #9
  192. ID                                       : 12
  193. Format                                   : UTF-8
  194. Codec ID                                 : S_TEXT/UTF8
  195. Codec ID/Info                            : UTF-8 Plain Text
  196. Duration                                 : 1 h 33 min
  197. Bit rate                                 : 79 b/s
  198. Count of elements                        : 1428
  199. Stream size                              : 54.4 KiB (0%)
  200. Language                                 : German
  201. Default                                  : No
  202. Forced                                   : No
  203.  
  204. Text #10
  205. ID                                       : 13
  206. Format                                   : UTF-8
  207. Codec ID                                 : S_TEXT/UTF8
  208. Codec ID/Info                            : UTF-8 Plain Text
  209. Duration                                 : 1 h 33 min
  210. Bit rate                                 : 139 b/s
  211. Count of elements                        : 1431
  212. Stream size                              : 95.1 KiB (0%)
  213. Language                                 : Greek
  214. Default                                  : No
  215. Forced                                   : No
  216.  
  217. Text #11
  218. ID                                       : 14
  219. Format                                   : UTF-8
  220. Codec ID                                 : S_TEXT/UTF8
  221. Codec ID/Info                            : UTF-8 Plain Text
  222. Duration                                 : 1 h 33 min
  223. Bit rate                                 : 74 b/s
  224. Count of elements                        : 1422
  225. Stream size                              : 51.0 KiB (0%)
  226. Language                                 : Finnish
  227. Default                                  : No
  228. Forced                                   : No
  229.  
  230. Text #12
  231. ID                                       : 15
  232. Format                                   : UTF-8
  233. Codec ID                                 : S_TEXT/UTF8
  234. Codec ID/Info                            : UTF-8 Plain Text
  235. Duration                                 : 1 h 33 min
  236. Bit rate                                 : 81 b/s
  237. Count of elements                        : 1390
  238. Stream size                              : 55.4 KiB (0%)
  239. Language                                 : fil
  240. Default                                  : No
  241. Forced                                   : No
  242.  
  243. Text #13
  244. ID                                       : 16
  245. Format                                   : UTF-8
  246. Codec ID                                 : S_TEXT/UTF8
  247. Codec ID/Info                            : UTF-8 Plain Text
  248. Duration                                 : 1 h 33 min
  249. Bit rate                                 : 84 b/s
  250. Count of elements                        : 1430
  251. Stream size                              : 57.7 KiB (0%)
  252. Language                                 : French
  253. Default                                  : No
  254. Forced                                   : No
  255.  
  256. Text #14
  257. ID                                       : 17
  258. Format                                   : UTF-8
  259. Codec ID                                 : S_TEXT/UTF8
  260. Codec ID/Info                            : UTF-8 Plain Text
  261. Duration                                 : 1 h 31 min
  262. Bit rate                                 : 127 b/s
  263. Count of elements                        : 1448
  264. Stream size                              : 85.2 KiB (0%)
  265. Language                                 : Hebrew
  266. Default                                  : No
  267. Forced                                   : No
  268.  
  269. Text #15
  270. ID                                       : 18
  271. Format                                   : UTF-8
  272. Codec ID                                 : S_TEXT/UTF8
  273. Codec ID/Info                            : UTF-8 Plain Text
  274. Duration                                 : 1 h 33 min
  275. Bit rate                                 : 71 b/s
  276. Count of elements                        : 1389
  277. Stream size                              : 48.9 KiB (0%)
  278. Language                                 : Croatian
  279. Default                                  : No
  280. Forced                                   : No
  281.  
  282. Text #16
  283. ID                                       : 19
  284. Format                                   : UTF-8
  285. Codec ID                                 : S_TEXT/UTF8
  286. Codec ID/Info                            : UTF-8 Plain Text
  287. Duration                                 : 1 h 33 min
  288. Bit rate                                 : 81 b/s
  289. Count of elements                        : 1395
  290. Stream size                              : 55.8 KiB (0%)
  291. Language                                 : Hungarian
  292. Default                                  : No
  293. Forced                                   : No
  294.  
  295. Text #17
  296. ID                                       : 20
  297. Format                                   : UTF-8
  298. Codec ID                                 : S_TEXT/UTF8
  299. Codec ID/Info                            : UTF-8 Plain Text
  300. Duration                                 : 1 h 33 min
  301. Bit rate                                 : 80 b/s
  302. Count of elements                        : 1438
  303. Stream size                              : 55.1 KiB (0%)
  304. Language                                 : Indonesian
  305. Default                                  : No
  306. Forced                                   : No
  307.  
  308. Text #18
  309. ID                                       : 21
  310. Format                                   : UTF-8
  311. Codec ID                                 : S_TEXT/UTF8
  312. Codec ID/Info                            : UTF-8 Plain Text
  313. Duration                                 : 1 h 32 min
  314. Bit rate                                 : 81 b/s
  315. Count of elements                        : 1384
  316. Stream size                              : 55.8 KiB (0%)
  317. Language                                 : Italian
  318. Default                                  : No
  319. Forced                                   : No
  320.  
  321. Text #19
  322. ID                                       : 22
  323. Format                                   : UTF-8
  324. Codec ID                                 : S_TEXT/UTF8
  325. Codec ID/Info                            : UTF-8 Plain Text
  326. Duration                                 : 1 h 31 min
  327. Bit rate                                 : 94 b/s
  328. Count of elements                        : 1492
  329. Stream size                              : 63.2 KiB (0%)
  330. Language                                 : Japanese
  331. Default                                  : No
  332. Forced                                   : No
  333.  
  334. Text #20
  335. ID                                       : 23
  336. Format                                   : UTF-8
  337. Codec ID                                 : S_TEXT/UTF8
  338. Codec ID/Info                            : UTF-8 Plain Text
  339. Duration                                 : 1 h 33 min
  340. Bit rate                                 : 101 b/s
  341. Count of elements                        : 1461
  342. Stream size                              : 69.4 KiB (0%)
  343. Language                                 : Korean
  344. Default                                  : No
  345. Forced                                   : No
  346.  
  347. Text #21
  348. ID                                       : 24
  349. Format                                   : UTF-8
  350. Codec ID                                 : S_TEXT/UTF8
  351. Codec ID/Info                            : UTF-8 Plain Text
  352. Duration                                 : 1 h 33 min
  353. Bit rate                                 : 73 b/s
  354. Count of elements                        : 1428
  355. Stream size                              : 50.0 KiB (0%)
  356. Language                                 : Malay
  357. Default                                  : No
  358. Forced                                   : No
  359.  
  360. Text #22
  361. ID                                       : 25
  362. Format                                   : UTF-8
  363. Codec ID                                 : S_TEXT/UTF8
  364. Codec ID/Info                            : UTF-8 Plain Text
  365. Duration                                 : 1 h 33 min
  366. Bit rate                                 : 75 b/s
  367. Count of elements                        : 1224
  368. Stream size                              : 51.1 KiB (0%)
  369. Language                                 : Norwegian Bokmal
  370. Default                                  : No
  371. Forced                                   : No
  372.  
  373. Text #23
  374. ID                                       : 26
  375. Format                                   : UTF-8
  376. Codec ID                                 : S_TEXT/UTF8
  377. Codec ID/Info                            : UTF-8 Plain Text
  378. Duration                                 : 1 h 33 min
  379. Bit rate                                 : 79 b/s
  380. Count of elements                        : 1312
  381. Stream size                              : 54.4 KiB (0%)
  382. Language                                 : Dutch
  383. Default                                  : No
  384. Forced                                   : No
  385.  
  386. Text #24
  387. ID                                       : 27
  388. Format                                   : UTF-8
  389. Codec ID                                 : S_TEXT/UTF8
  390. Codec ID/Info                            : UTF-8 Plain Text
  391. Duration                                 : 1 h 33 min
  392. Bit rate                                 : 74 b/s
  393. Count of elements                        : 1407
  394. Stream size                              : 50.8 KiB (0%)
  395. Language                                 : Polish
  396. Default                                  : No
  397. Forced                                   : No
  398.  
  399. Text #25
  400. ID                                       : 28
  401. Format                                   : UTF-8
  402. Codec ID                                 : S_TEXT/UTF8
  403. Codec ID/Info                            : UTF-8 Plain Text
  404. Duration                                 : 1 h 33 min
  405. Bit rate                                 : 81 b/s
  406. Count of elements                        : 1433
  407. Stream size                              : 55.8 KiB (0%)
  408. Title                                    : Brazilian
  409. Language                                 : Portuguese
  410. Default                                  : No
  411. Forced                                   : No
  412.  
  413. Text #26
  414. ID                                       : 29
  415. Format                                   : UTF-8
  416. Codec ID                                 : S_TEXT/UTF8
  417. Codec ID/Info                            : UTF-8 Plain Text
  418. Duration                                 : 1 h 33 min
  419. Bit rate                                 : 82 b/s
  420. Count of elements                        : 1414
  421. Stream size                              : 56.3 KiB (0%)
  422. Language                                 : Portuguese
  423. Default                                  : No
  424. Forced                                   : No
  425.  
  426. Text #27
  427. ID                                       : 30
  428. Format                                   : UTF-8
  429. Codec ID                                 : S_TEXT/UTF8
  430. Codec ID/Info                            : UTF-8 Plain Text
  431. Duration                                 : 1 h 33 min
  432. Bit rate                                 : 81 b/s
  433. Count of elements                        : 1295
  434. Stream size                              : 55.7 KiB (0%)
  435. Language                                 : Romanian
  436. Default                                  : No
  437. Forced                                   : No
  438.  
  439. Text #28
  440. ID                                       : 31
  441. Format                                   : UTF-8
  442. Codec ID                                 : S_TEXT/UTF8
  443. Codec ID/Info                            : UTF-8 Plain Text
  444. Duration                                 : 1 h 32 min
  445. Bit rate                                 : 77 b/s
  446. Count of elements                        : 1270
  447. Stream size                              : 52.5 KiB (0%)
  448. Language                                 : Swedish
  449. Default                                  : No
  450. Forced                                   : No
  451.  
  452. Text #29
  453. ID                                       : 32
  454. Format                                   : UTF-8
  455. Codec ID                                 : S_TEXT/UTF8
  456. Codec ID/Info                            : UTF-8 Plain Text
  457. Duration                                 : 1 h 33 min
  458. Bit rate                                 : 206 b/s
  459. Count of elements                        : 1490
  460. Stream size                              : 141 KiB (0%)
  461. Language                                 : Thai
  462. Default                                  : No
  463. Forced                                   : No
  464.  
  465. Text #30
  466. ID                                       : 33
  467. Format                                   : UTF-8
  468. Codec ID                                 : S_TEXT/UTF8
  469. Codec ID/Info                            : UTF-8 Plain Text
  470. Duration                                 : 1 h 33 min
  471. Bit rate                                 : 76 b/s
  472. Count of elements                        : 1400
  473. Stream size                              : 52.1 KiB (0%)
  474. Language                                 : Turkish
  475. Default                                  : No
  476. Forced                                   : No
  477.  
  478. Text #31
  479. ID                                       : 34
  480. Format                                   : UTF-8
  481. Codec ID                                 : S_TEXT/UTF8
  482. Codec ID/Info                            : UTF-8 Plain Text
  483. Duration                                 : 1 h 33 min
  484. Bit rate                                 : 132 b/s
  485. Count of elements                        : 1452
  486. Stream size                              : 90.4 KiB (0%)
  487. Language                                 : Ukrainian
  488. Default                                  : No
  489. Forced                                   : No
  490.  
  491. Text #32
  492. ID                                       : 35
  493. Format                                   : UTF-8
  494. Codec ID                                 : S_TEXT/UTF8
  495. Codec ID/Info                            : UTF-8 Plain Text
  496. Duration                                 : 1 h 33 min
  497. Bit rate                                 : 115 b/s
  498. Count of elements                        : 1319
  499. Stream size                              : 78.5 KiB (0%)
  500. Language                                 : Vietnamese
  501. Default                                  : No
  502. Forced                                   : No
  503.  
  504. Text #33
  505. ID                                       : 36
  506. Format                                   : UTF-8
  507. Codec ID                                 : S_TEXT/UTF8
  508. Codec ID/Info                            : UTF-8 Plain Text
  509. Duration                                 : 1 h 33 min
  510. Bit rate                                 : 88 b/s
  511. Count of elements                        : 1451
  512. Stream size                              : 60.3 KiB (0%)
  513. Title                                    : Simplified
  514. Language                                 : Chinese
  515. Default                                  : No
  516. Forced                                   : No
  517.  
  518. Text #34
  519. ID                                       : 37
  520. Format                                   : UTF-8
  521. Codec ID                                 : S_TEXT/UTF8
  522. Codec ID/Info                            : UTF-8 Plain Text
  523. Duration                                 : 1 h 33 min
  524. Bit rate                                 : 71 b/s
  525. Count of elements                        : 1439
  526. Stream size                              : 49.0 KiB (0%)
  527. Title                                    : Traditional
  528. Language                                 : Chinese
  529. Default                                  : No
  530. Forced                                   : No
  531.  
  532. Menu
  533. 01:31:40.000                             : en:End Credits
  534.  
  535.  
  536.