1. Prizefighter.The.Life.of.Jem.Belcher.2022.1080p.AMZN.WEBRip.DD5.1.X.264-EVO.mkv
  2. General
  3. Unique ID                                : 113515916087695150135156078136438187647 (0x55665EC526A1C35A11DF3E189E16667F)
  4. Complete name                            : D:\Prizefighter.The.Life.of.Jem.Belcher.2022.1080p.AMZN.WEBRip.DD5.1.X.264-EVO.mkv
  5. Format                                   : Matroska
  6. Format version                           : Version 4
  7. File size                                : 1.93 GiB
  8. Duration                                 : 1 h 46 min
  9. Overall bit rate                         : 2 583 kb/s
  10. Movie name                               : EVO
  11. Encoded date                             : UTC 2022-07-21 23:55:44
  12. Writing application                      : mkvmerge v67.0.0 ('Under Stars') 64-bit
  13. Writing library                          : libebml v1.4.2 + libmatroska v1.6.4
  14.  
  15. Video
  16. ID                                       : 1
  17. Format                                   : AVC
  18. Format/Info                              : Advanced Video Codec
  19. Format profile                           : High@L4
  20. Format settings                          : CABAC / 4 Ref Frames
  21. Format settings, CABAC                   : Yes
  22. Format settings, Reference frames        : 4 frames
  23. Codec ID                                 : V_MPEG4/ISO/AVC
  24. Duration                                 : 1 h 46 min
  25. Bit rate                                 : 2 200 kb/s
  26. Width                                    : 1 920 pixels
  27. Height                                   : 804 pixels
  28. Display aspect ratio                     : 2.40:1
  29. Frame rate mode                          : Constant
  30. Frame rate                               : 24.000 FPS
  31. Color space                              : YUV
  32. Chroma subsampling                       : 4:2:0
  33. Bit depth                                : 8 bits
  34. Scan type                                : Progressive
  35. Bits/(Pixel*Frame)                       : 0.059
  36. Stream size                              : 1.64 GiB (85%)
  37. Writing library                          : x264 core 164 r3079 d9a19f0
  38. Encoding settings                        : cabac=1 / ref=2 / deblock=1:0:0 / analyse=0x3:0x113 / me=hex / subme=6 / psy=1 / psy_rd=1.00:0.00 / mixed_ref=1 / me_range=16 / chroma_me=1 / trellis=1 / 8x8dct=1 / cqm=0 / deadzone=21,11 / fast_pskip=1 / chroma_qp_offset=-2 / threads=24 / lookahead_threads=4 / sliced_threads=0 / nr=0 / decimate=1 / interlaced=0 / bluray_compat=0 / constrained_intra=0 / bframes=3 / b_pyramid=2 / b_adapt=1 / b_bias=0 / direct=1 / weightb=1 / open_gop=0 / weightp=1 / keyint=250 / keyint_min=24 / scenecut=40 / intra_refresh=0 / rc_lookahead=30 / rc=2pass / mbtree=1 / bitrate=2200 / ratetol=1.0 / qcomp=0.60 / qpmin=0 / qpmax=69 / qpstep=4 / cplxblur=20.0 / qblur=0.5 / ip_ratio=1.40 / aq=1:1.00
  39. Language                                 : English
  40. Default                                  : Yes
  41. Forced                                   : No
  42. Color range                              : Limited
  43. Color primaries                          : BT.709
  44. Transfer characteristics                 : BT.709
  45. Matrix coefficients                      : BT.709
  46.  
  47. Audio
  48. ID                                       : 2
  49. Format                                   : AC-3
  50. Format/Info                              : Audio Coding 3
  51. Commercial name                          : Dolby Digital
  52. Codec ID                                 : A_AC3
  53. Duration                                 : 1 h 46 min
  54. Bit rate mode                            : Constant
  55. Bit rate                                 : 384 kb/s
  56. Channel(s)                               : 6 channels
  57. Channel layout                           : L R C LFE Ls Rs
  58. Sampling rate                            : 48.0 kHz
  59. Frame rate                               : 31.250 FPS (1536 SPF)
  60. Bit depth                                : 16 bits
  61. Compression mode                         : Lossy
  62. Delay relative to video                  : -5 ms
  63. Stream size                              : 294 MiB (15%)
  64. Language                                 : English
  65. Service kind                             : Complete Main
  66. Default                                  : Yes
  67. Forced                                   : No
  68.  
  69.  
  70.