1. Lake.Nowhere.2014.720p.AMZN.WEB-DL.DD2.0.H.264-NTG.mkv
  2. General
  3. Unique ID                                : 32484216485000247386389762917683090599 (0x18703B86BF7FAA06C7828E0CB846D4A7)
  4. Complete name                            : D:\Lake.Nowhere.2014.720p.AMZN.WEB-DL.DD2.0.H.264-NTG.mkv
  5. Format                                   : Matroska
  6. Format version                           : Version 4
  7. File size                                : 1.59 GiB
  8. Duration                                 : 50 min 23 s
  9. Overall bit rate mode                    : Variable
  10. Overall bit rate                         : 4 506 kb/s
  11. Encoded date                             : UTC 2017-10-03 05:42:32
  12. Writing application                      : mkvmerge v16.0.0 ('Protest') 64-bit
  13. Writing library                          : libebml v1.3.5 + libmatroska v1.4.8
  14.  
  15. Video
  16. ID                                       : 1
  17. Format                                   : AVC
  18. Format/Info                              : Advanced Video Codec
  19. Format profile                           : High@L3.1
  20. Format settings                          : CABAC / 5 Ref Frames
  21. Format settings, CABAC                   : Yes
  22. Format settings, Reference frames        : 5 frames
  23. Codec ID                                 : V_MPEG4/ISO/AVC
  24. Duration                                 : 50 min 23 s
  25. Bit rate mode                            : Variable
  26. Bit rate                                 : 4 280 kb/s
  27. Maximum bit rate                         : 4 500 kb/s
  28. Width                                    : 1 280 pixels
  29. Height                                   : 720 pixels
  30. Display aspect ratio                     : 16:9
  31. Frame rate mode                          : Constant
  32. Frame rate                               : 23.976 (24000/1001) FPS
  33. Color space                              : YUV
  34. Chroma subsampling                       : 4:2:0
  35. Bit depth                                : 8 bits
  36. Scan type                                : Progressive
  37. Bits/(Pixel*Frame)                       : 0.194
  38. Stream size                              : 1.51 GiB (95%)
  39. Default                                  : Yes
  40. Forced                                   : No
  41. Color range                              : Limited
  42. Color primaries                          : BT.709
  43. Transfer characteristics                 : BT.709
  44. Matrix coefficients                      : BT.709
  45.  
  46. Audio
  47. ID                                       : 2
  48. Format                                   : E-AC-3
  49. Format/Info                              : Enhanced AC-3
  50. Commercial name                          : Dolby Digital Plus
  51. Codec ID                                 : A_EAC3
  52. Duration                                 : 50 min 23 s
  53. Bit rate mode                            : Constant
  54. Bit rate                                 : 224 kb/s
  55. Channel(s)                               : 2 channels
  56. Channel layout                           : L R
  57. Sampling rate                            : 48.0 kHz
  58. Frame rate                               : 31.250 FPS (1536 SPF)
  59. Compression mode                         : Lossy
  60. Stream size                              : 80.7 MiB (5%)
  61. Language                                 : English
  62. Service kind                             : Complete Main
  63. Default                                  : Yes
  64. Forced                                   : No
  65.  
  66. Text
  67. ID                                       : 3
  68. Format                                   : UTF-8
  69. Codec ID                                 : S_TEXT/UTF8
  70. Codec ID/Info                            : UTF-8 Plain Text
  71. Duration                                 : 49 min 19 s
  72. Bit rate                                 : 35 b/s
  73. Count of elements                        : 597
  74. Stream size                              : 12.8 KiB (0%)
  75. Language                                 : English
  76. Default                                  : No
  77. Forced                                   : No
  78.  
  79.  
  80.