1. Adrianas.Pact.2017.1080p.WEB-DL.AAC.2.0.x264-CANDY.mkv
  2. General
  3. Unique ID                                : 193630441548205185196275417627633172000 (0x91ABDDD65E7595E118D05B485B24BE20)
  4. Complete name                            : D:\Adrianas.Pact.2017.1080p.WEB-DL.AAC.2.0.x264-CANDY.mkv
  5. Format                                   : Matroska
  6. Format version                           : Version 4
  7. File size                                : 2.94 GiB
  8. Duration                                 : 1 h 33 min
  9. Overall bit rate                         : 4 497 kb/s
  10. Movie name                               : Adrianas.Pact.2017.1080p.WEB-DL.AAC.2.0.x264-CANDY.mkv
  11. Encoded date                             : UTC 2022-07-03 00:27:30
  12. Writing application                      : mkvmerge v19.0.0 ('Brave Captain') 64-bit
  13. Writing library                          : libebml v1.3.5 + libmatroska v1.4.8
  14.  
  15. Video
  16. ID                                       : 1
  17. Format                                   : AVC
  18. Format/Info                              : Advanced Video Codec
  19. Format profile                           : High@L4
  20. Format settings                          : CABAC / 5 Ref Frames
  21. Format settings, CABAC                   : Yes
  22. Format settings, Reference frames        : 5 frames
  23. Codec ID                                 : V_MPEG4/ISO/AVC
  24. Duration                                 : 1 h 33 min
  25. Bit rate                                 : 4 241 kb/s
  26. Width                                    : 1 920 pixels
  27. Height                                   : 1 080 pixels
  28. Display aspect ratio                     : 16:9
  29. Frame rate mode                          : Constant
  30. Frame rate                               : 24.000 FPS
  31. Color space                              : YUV
  32. Chroma subsampling                       : 4:2:0
  33. Bit depth                                : 8 bits
  34. Scan type                                : Progressive
  35. Bits/(Pixel*Frame)                       : 0.085
  36. Stream size                              : 2.77 GiB (94%)
  37. Writing library                          : x264 core 159 r10 1771b55
  38. Encoding settings                        : cabac=1 / ref=5 / deblock=1:0:0 / analyse=0x3:0x113 / me=hex / subme=8 / psy=1 / psy_rd=1.00:0.00 / mixed_ref=1 / me_range=16 / chroma_me=1 / trellis=2 / 8x8dct=1 / cqm=0 / deadzone=21,11 / fast_pskip=1 / chroma_qp_offset=-2 / threads=34 / lookahead_threads=5 / sliced_threads=0 / nr=0 / decimate=1 / interlaced=0 / bluray_compat=0 / stitchable=1 / constrained_intra=0 / bframes=3 / b_pyramid=2 / b_adapt=2 / b_bias=0 / direct=3 / weightb=1 / open_gop=0 / weightp=2 / keyint=infinite / keyint_min=24 / scenecut=40 / intra_refresh=0 / rc_lookahead=50 / rc=crf / mbtree=1 / crf=20.0 / qcomp=0.60 / qpmin=5 / qpmax=69 / qpstep=4 / vbv_maxrate=5500 / vbv_bufsize=15000 / crf_max=0.0 / nal_hrd=none / filler=0 / ip_ratio=1.40 / aq=1:1.00
  39. Default                                  : Yes
  40. Forced                                   : No
  41. Color range                              : Limited
  42. Color primaries                          : BT.709
  43. Transfer characteristics                 : BT.709
  44. Matrix coefficients                      : BT.709
  45.  
  46. Audio
  47. ID                                       : 2
  48. Format                                   : AAC LC
  49. Format/Info                              : Advanced Audio Codec Low Complexity
  50. Codec ID                                 : A_AAC-2
  51. Duration                                 : 1 h 33 min
  52. Bit rate                                 : 253 kb/s
  53. Channel(s)                               : 2 channels
  54. Channel layout                           : L R
  55. Sampling rate                            : 48.0 kHz
  56. Frame rate                               : 46.875 FPS (1024 SPF)
  57. Compression mode                         : Lossy
  58. Stream size                              : 170 MiB (6%)
  59. Default                                  : Yes
  60. Forced                                   : No
  61.  
  62.  
  63.