1. Fotbal Infinit 2018 1080p BluRay FLAC2.0 x264-EA.mkv
  2. General
  3. Unique ID                                : 242549516831053851342664083559080708242 (0xB67956768840054C204CE1E19AA6C892)
  4. Complete name                            : D:\Fotbal Infinit 2018 1080p BluRay FLAC2.0 x264-EA.mkv
  5. Format                                   : Matroska
  6. Format version                           : Version 4
  7. File size                                : 4.93 GiB
  8. Duration                                 : 1 h 13 min
  9. Overall bit rate mode                    : Variable
  10. Overall bit rate                         : 9 633 kb/s
  11. Movie name                               : Corneliu Porumboiu - Fotbal Infinit (2018)
  12. Encoded date                             : UTC 2022-02-27 15:06:39
  13. Writing application                      : mkvmerge v65.0.0 ('Too Much') 64-bit
  14. Writing library                          : libebml v1.4.2 + libmatroska v1.6.4
  15.  
  16. Video
  17. ID                                       : 1
  18. Format                                   : AVC
  19. Format/Info                              : Advanced Video Codec
  20. Format profile                           : High@L4.1
  21. Format settings                          : CABAC / 4 Ref Frames
  22. Format settings, CABAC                   : Yes
  23. Format settings, Reference frames        : 4 frames
  24. Codec ID                                 : V_MPEG4/ISO/AVC
  25. Duration                                 : 1 h 13 min
  26. Bit rate                                 : 8 735 kb/s
  27. Width                                    : 1 920 pixels
  28. Height                                   : 1 038 pixels
  29. Display aspect ratio                     : 1.85:1
  30. Frame rate mode                          : Constant
  31. Frame rate                               : 23.976 (24000/1001) FPS
  32. Color space                              : YUV
  33. Chroma subsampling                       : 4:2:0
  34. Bit depth                                : 8 bits
  35. Scan type                                : Progressive
  36. Bits/(Pixel*Frame)                       : 0.183
  37. Stream size                              : 4.47 GiB (91%)
  38. Title                                    : -EA
  39. Writing library                          : x264 core 164 r3085+55M 938b6d0 t_mod_New [(8 & 10)-bit@all X86_64]
  40. Encoding settings                        : cabac=1 / ref=4 / deblock=1:-3:-3 / analyse=0x3:0x133 / me=umh / subme=10 / psy=1 / fade_compensate=0.00 / psy_rd=0.96:0.00 / mixed_ref=1 / me_range=32 / chroma_me=1 / trellis=2 / 8x8dct=1 / cqm=0 / deadzone=21,11 / fast_pskip=0 / chroma_qp_offset=-2 / threads=18 / lookahead_threads=4 / sliced_threads=0 / nr=0 / decimate=0 / interlaced=0 / bluray_compat=0 / constrained_intra=0 / fgo=0 / bframes=10 / b_pyramid=2 / b_adapt=2 / b_bias=0 / direct=3 / weightb=1 / open_gop=0 / weightp=2 / keyint=240 / keyint_min=23 / scenecut=40 / intra_refresh=0 / rc_lookahead=60 / rc=crf / mbtree=0 / crf=16.2000 / qcomp=0.65 / qpmin=0:0:0 / qpmax=69:69:69 / qpstep=4 / vbv_maxrate=62500 / vbv_bufsize=78125 / crf_max=0.0 / nal_hrd=none / filler=0 / ip_ratio=1.35 / pb_ratio=1.25 / aq=3:0.85 / aq-sensitivity=10.00 / aq-factor=1.00:1.00:1.00 / aq2=0 / aq3=0
  41. Language                                 : Romanian
  42. Default                                  : Yes
  43. Forced                                   : No
  44. Color range                              : Limited
  45. Color primaries                          : BT.709
  46. Transfer characteristics                 : BT.709
  47. Matrix coefficients                      : BT.709
  48.  
  49. Audio
  50. ID                                       : 2
  51. Format                                   : FLAC
  52. Format/Info                              : Free Lossless Audio Codec
  53. Codec ID                                 : A_FLAC
  54. Duration                                 : 1 h 13 min
  55. Bit rate mode                            : Variable
  56. Bit rate                                 : 882 kb/s
  57. Channel(s)                               : 2 channels
  58. Channel layout                           : L R
  59. Sampling rate                            : 48.0 kHz
  60. Frame rate                               : 11.719 FPS (4096 SPF)
  61. Bit depth                                : 24 bits
  62. Compression mode                         : Lossless
  63. Stream size                              : 462 MiB (9%)
  64. Writing library                          : libFLAC 1.2.1 (UTC 2007-09-17)
  65. Language                                 : Romanian
  66. Default                                  : Yes
  67. Forced                                   : No
  68.  
  69. Text #1
  70. ID                                       : 3
  71. Format                                   : UTF-8
  72. Codec ID                                 : S_TEXT/UTF8
  73. Codec ID/Info                            : UTF-8 Plain Text
  74. Duration                                 : 1 h 10 min
  75. Bit rate                                 : 76 b/s
  76. Count of elements                        : 897
  77. Stream size                              : 39.5 KiB (0%)
  78. Title                                    : srt
  79. Language                                 : English
  80. Default                                  : Yes
  81. Forced                                   : No
  82.  
  83. Text #2
  84. ID                                       : 4
  85. Format                                   : PGS
  86. Muxing mode                              : zlib
  87. Codec ID                                 : S_HDMV/PGS
  88. Codec ID/Info                            : Picture based subtitle format used on BDs/HD-DVDs
  89. Duration                                 : 1 h 10 min
  90. Bit rate                                 : 46.5 kb/s
  91. Count of elements                        : 1794
  92. Stream size                              : 23.5 MiB (0%)
  93. Title                                    : sup
  94. Language                                 : English
  95. Default                                  : No
  96. Forced                                   : No
  97.  
  98. Menu
  99. 00:00:00.000                             : :Chapter 01
  100. 00:09:49.214                             : :Chapter 02
  101. 00:20:02.868                             : :Chapter 03
  102. 00:25:28.569                             : :Chapter 04
  103. 00:31:16.792                             : :Chapter 05
  104. 00:36:56.256                             : :Chapter 06
  105. 00:43:47.041                             : :Chapter 07
  106. 00:51:52.943                             : :Chapter 08
  107. 00:57:25.317                             : :Chapter 09
  108. 01:05:50.697                             : :Chapter 10
  109. 01:11:08.347                             : :Chapter 11
  110.  
  111.  
  112.