1. Grand.Cru.2018.1080p.AMZN.WEB-DL.DDP5.1.H.264-SiGLA.mkv
  2. General
  3. Unique ID                                : 224903465369340379530253615154558705857 (0xA932D4F475259F27B91C01AD4D08A0C1)
  4. Complete name                            : D:\Grand.Cru.2018.1080p.AMZN.WEB-DL.DDP5.1.H.264-SiGLA.mkv
  5. Format                                   : Matroska
  6. Format version                           : Version 4
  7. File size                                : 5.46 GiB
  8. Duration                                 : 1 h 19 min
  9. Overall bit rate                         : 9 833 kb/s
  10. Movie name                               : Grand Cru (2018)
  11. Writing application                      : mkvmerge v70.0.0 ('Caught A Lite Sneeze') 64-bit
  12. Writing library                          : libebml v1.4.2 + libmatroska v1.6.3
  13. IMDB                                     : tt7584894
  14. TMDB                                     : movie/510104
  15.  
  16. Video
  17. ID                                       : 1
  18. Format                                   : AVC
  19. Format/Info                              : Advanced Video Codec
  20. Format profile                           : High@L4
  21. Format settings                          : CABAC / 4 Ref Frames
  22. Format settings, CABAC                   : Yes
  23. Format settings, Reference frames        : 4 frames
  24. Codec ID                                 : V_MPEG4/ISO/AVC
  25. Duration                                 : 1 h 19 min
  26. Bit rate mode                            : Constant
  27. Bit rate                                 : 9 191 kb/s
  28. Nominal bit rate                         : 10 000 kb/s
  29. Width                                    : 1 920 pixels
  30. Height                                   : 1 080 pixels
  31. Display aspect ratio                     : 16:9
  32. Frame rate mode                          : Constant
  33. Frame rate                               : 23.976 (24000/1001) FPS
  34. Color space                              : YUV
  35. Chroma subsampling                       : 4:2:0
  36. Bit depth                                : 8 bits
  37. Scan type                                : Progressive
  38. Bits/(Pixel*Frame)                       : 0.185
  39. Stream size                              : 5.11 GiB (93%)
  40. Default                                  : Yes
  41. Forced                                   : No
  42. Color range                              : Limited
  43. Color primaries                          : BT.709
  44. Transfer characteristics                 : BT.709
  45. Matrix coefficients                      : BT.709
  46.  
  47. Audio
  48. ID                                       : 2
  49. Format                                   : E-AC-3
  50. Format/Info                              : Enhanced AC-3
  51. Commercial name                          : Dolby Digital Plus
  52. Codec ID                                 : A_EAC3
  53. Duration                                 : 1 h 19 min
  54. Bit rate mode                            : Constant
  55. Bit rate                                 : 640 kb/s
  56. Channel(s)                               : 6 channels
  57. Channel layout                           : L R C LFE Ls Rs
  58. Sampling rate                            : 48.0 kHz
  59. Frame rate                               : 31.250 FPS (1536 SPF)
  60. Compression mode                         : Lossy
  61. Stream size                              : 364 MiB (7%)
  62. Language                                 : English
  63. Service kind                             : Complete Main
  64. Default                                  : Yes
  65. Forced                                   : No
  66.  
  67. Text #1
  68. ID                                       : 3
  69. Format                                   : UTF-8
  70. Codec ID                                 : S_TEXT/UTF8
  71. Codec ID/Info                            : UTF-8 Plain Text
  72. Duration                                 : 1 h 11 min
  73. Bit rate                                 : 29 b/s
  74. Count of elements                        : 422
  75. Stream size                              : 15.5 KiB (0%)
  76. Language                                 : English
  77. Default                                  : No
  78. Forced                                   : No
  79.  
  80. Text #2
  81. ID                                       : 4
  82. Format                                   : UTF-8
  83. Codec ID                                 : S_TEXT/UTF8
  84. Codec ID/Info                            : UTF-8 Plain Text
  85. Duration                                 : 1 h 19 min
  86. Bit rate                                 : 32 b/s
  87. Count of elements                        : 604
  88. Stream size                              : 18.7 KiB (0%)
  89. Title                                    : SDH
  90. Language                                 : English
  91. Default                                  : No
  92. Forced                                   : No
  93.  
  94.  
  95.