1. Beverly.Of.Graustark.1926.1080p.BluRay.x264.DD2.0-FGT.mkv
  2. General
  3. Unique ID                                : 175012829164008496570221395587193767363 (0x83AA3EAD6F0AEF3EC29B07EA042E05C3)
  4. Complete name                            : D:\Beverly.Of.Graustark.1926.1080p.BluRay.x264.DD2.0-FGT.mkv
  5. Format                                   : Matroska
  6. Format version                           : Version 4
  7. File size                                : 6.38 GiB
  8. Duration                                 : 1 h 18 min
  9. Overall bit rate                         : 11.7 Mb/s
  10. Movie name                               : Beverly.Of.Graustark.1926.1080p.BluRay.x264.DD2.0-FGT
  11. Encoded date                             : UTC 2022-05-12 17:34:43
  12. Writing application                      : mkvmerge v67.0.0 ('Under Stars') 64-bit
  13. Writing library                          : libebml v1.4.2 + libmatroska v1.6.4
  14.  
  15. Video
  16. ID                                       : 1
  17. Format                                   : AVC
  18. Format/Info                              : Advanced Video Codec
  19. Format profile                           : High@L4.1
  20. Format settings                          : CABAC / 4 Ref Frames
  21. Format settings, CABAC                   : Yes
  22. Format settings, Reference frames        : 4 frames
  23. Codec ID                                 : V_MPEG4/ISO/AVC
  24. Duration                                 : 1 h 18 min
  25. Bit rate                                 : 11.5 Mb/s
  26. Width                                    : 1 424 pixels
  27. Height                                   : 1 080 pixels
  28. Display aspect ratio                     : 4:3
  29. Frame rate mode                          : Constant
  30. Frame rate                               : 23.976 (24000/1001) FPS
  31. Color space                              : YUV
  32. Chroma subsampling                       : 4:2:0
  33. Bit depth                                : 8 bits
  34. Scan type                                : Progressive
  35. Bits/(Pixel*Frame)                       : 0.312
  36. Stream size                              : 6.27 GiB (98%)
  37. Writing library                          : x264 core 148 r2795M aaa9aa8
  38. Encoding settings                        : cabac=1 / ref=4 / deblock=1:-2:-2 / analyse=0x3:0x113 / me=umh / subme=9 / psy=1 / psy_rd=1.00:0.15 / mixed_ref=1 / me_range=16 / chroma_me=1 / trellis=2 / 8x8dct=1 / cqm=0 / deadzone=21,11 / fast_pskip=1 / chroma_qp_offset=-3 / threads=24 / lookahead_threads=3 / sliced_threads=0 / nr=0 / decimate=1 / interlaced=0 / bluray_compat=0 / constrained_intra=0 / bframes=3 / b_pyramid=2 / b_adapt=1 / b_bias=0 / direct=3 / weightb=1 / open_gop=0 / weightp=2 / keyint=250 / keyint_min=25 / scenecut=40 / intra_refresh=0 / rc_lookahead=50 / rc=2pass / mbtree=1 / bitrate=11500 / ratetol=1.0 / qcomp=0.60 / qpmin=0 / qpmax=69 / qpstep=4 / cplxblur=20.0 / qblur=0.5 / vbv_maxrate=31250 / vbv_bufsize=31250 / nal_hrd=none / filler=0 / ip_ratio=1.40 / aq=1:1.00
  39. Default                                  : Yes
  40. Forced                                   : No
  41.  
  42. Audio
  43. ID                                       : 2
  44. Format                                   : AC-3
  45. Format/Info                              : Audio Coding 3
  46. Commercial name                          : Dolby Digital
  47. Codec ID                                 : A_AC3
  48. Duration                                 : 1 h 18 min
  49. Bit rate mode                            : Constant
  50. Bit rate                                 : 192 kb/s
  51. Channel(s)                               : 2 channels
  52. Channel layout                           : L R
  53. Sampling rate                            : 48.0 kHz
  54. Frame rate                               : 31.250 FPS (1536 SPF)
  55. Bit depth                                : 16 bits
  56. Compression mode                         : Lossy
  57. Stream size                              : 107 MiB (2%)
  58. Language                                 : English
  59. Service kind                             : Complete Main
  60. Default                                  : Yes
  61. Forced                                   : No
  62.  
  63. Menu
  64. 00:00:00.000                             : en:Chapter 01
  65. 00:09:27.400                             : en:Chapter 02
  66. 00:21:30.623                             : en:Chapter 03
  67. 00:30:34.708                             : en:Chapter 04
  68. 00:38:36.564                             : en:Chapter 05
  69. 00:49:19.373                             : en:Chapter 06
  70. 00:55:26.323                             : en:Chapter 07
  71. 01:03:52.078                             : en:Chapter 08
  72. 01:12:41.232                             : en:Chapter 09
  73. 01:16:55.861                             : en:Chapter 10
  74.  
  75.  
  76.