1. Prizefighter.The.Life.of.Jem.Belcher.2022.HDRip.XviD.AC3-EVO.avi
  2. General
  3. Unique ID                                : 82247236578650813936240208304290536751 (0x3DE03DD7FD622A1726D73D05BB161D2F)
  4. Complete name                            : D:\Prizefighter.The.Life.of.Jem.Belcher.2022.HDRip.XviD.AC3-EVO.avi
  5. Format                                   : Matroska
  6. Format version                           : Version 4
  7. File size                                : 1.36 GiB
  8. Duration                                 : 1 h 46 min
  9. Overall bit rate                         : 1 815 kb/s
  10. Encoded date                             : UTC 2022-07-21 23:16:36
  11. Writing application                      : mkvmerge v67.0.0 ('Under Stars') 64-bit
  12. Writing library                          : libebml v1.4.2 + libmatroska v1.6.4
  13. FileExtension_Invalid                    : mkv mk3d mka mks
  14.  
  15. Video
  16. ID                                       : 1
  17. Format                                   : AVC
  18. Format/Info                              : Advanced Video Codec
  19. Format profile                           : High@L3
  20. Format settings                          : CABAC / 4 Ref Frames
  21. Format settings, CABAC                   : Yes
  22. Format settings, Reference frames        : 4 frames
  23. Codec ID                                 : V_MPEG4/ISO/AVC
  24. Duration                                 : 1 h 46 min
  25. Bit rate                                 : 1 450 kb/s
  26. Width                                    : 720 pixels
  27. Height                                   : 300 pixels
  28. Display aspect ratio                     : 2.40:1
  29. Original display aspect ratio            : 2.40:1
  30. Frame rate mode                          : Constant
  31. Frame rate                               : 24.000 FPS
  32. Color space                              : YUV
  33. Chroma subsampling                       : 4:2:0
  34. Bit depth                                : 8 bits
  35. Scan type                                : Progressive
  36. Bits/(Pixel*Frame)                       : 0.280
  37. Stream size                              : 1.07 GiB (79%)
  38. Writing library                          : x264 core 164 r3079 d9a19f0
  39. Encoding settings                        : cabac=1 / ref=1 / deblock=1:0:0 / analyse=0x3:0x113 / me=hex / subme=2 / psy=1 / psy_rd=1.00:0.00 / mixed_ref=0 / me_range=16 / chroma_me=1 / trellis=0 / 8x8dct=1 / cqm=0 / deadzone=21,11 / fast_pskip=1 / chroma_qp_offset=0 / threads=9 / lookahead_threads=2 / sliced_threads=0 / nr=0 / decimate=1 / interlaced=0 / bluray_compat=0 / constrained_intra=0 / bframes=3 / b_pyramid=2 / b_adapt=1 / b_bias=0 / direct=1 / weightb=1 / open_gop=0 / weightp=1 / keyint=250 / keyint_min=24 / scenecut=40 / intra_refresh=0 / rc_lookahead=10 / rc=abr / mbtree=1 / bitrate=1450 / ratetol=1.0 / qcomp=0.60 / qpmin=0 / qpmax=69 / qpstep=4 / ip_ratio=1.40 / aq=1:1.00
  40. Language                                 : English
  41. Default                                  : Yes
  42. Forced                                   : No
  43. Color range                              : Limited
  44. Color primaries                          : BT.709
  45. Transfer characteristics                 : BT.709
  46. Matrix coefficients                      : BT.709
  47.  
  48. Audio
  49. ID                                       : 2
  50. Format                                   : AC-3
  51. Format/Info                              : Audio Coding 3
  52. Commercial name                          : Dolby Digital
  53. Codec ID                                 : A_AC3
  54. Duration                                 : 1 h 46 min
  55. Bit rate mode                            : Constant
  56. Bit rate                                 : 384 kb/s
  57. Channel(s)                               : 6 channels
  58. Channel layout                           : L R C LFE Ls Rs
  59. Sampling rate                            : 48.0 kHz
  60. Frame rate                               : 31.250 FPS (1536 SPF)
  61. Bit depth                                : 16 bits
  62. Compression mode                         : Lossy
  63. Delay relative to video                  : -5 ms
  64. Stream size                              : 294 MiB (21%)
  65. Language                                 : English
  66. Service kind                             : Complete Main
  67. Default                                  : Yes
  68. Forced                                   : No
  69.  
  70.  
  71.