1. Id.prefer.your.problems.princess.2018.1080p.ROKU.WEB-DL.AAC2.0.H.264-WELP.mkv
  2. General
  3. Unique ID                                : 68626261980791493590236123070708608541 (0x33A0EFF25E9FA97988D322B3E2746E1D)
  4. Complete name                            : D:\Id.prefer.your.problems.princess.2018.1080p.ROKU.WEB-DL.AAC2.0.H.264-WELP.mkv
  5. Format                                   : Matroska
  6. Format version                           : Version 4
  7. File size                                : 2.77 GiB
  8. Duration                                 : 1 h 40 min
  9. Overall bit rate mode                    : Variable
  10. Overall bit rate                         : 3 945 kb/s
  11. Writing application                      : mkvmerge v64.0.0 ('Willows') 64-bit
  12. Writing library                          : libebml v1.4.2 + libmatroska v1.6.4
  13.  
  14. Video
  15. ID                                       : 1
  16. Format                                   : AVC
  17. Format/Info                              : Advanced Video Codec
  18. Format profile                           : High@L4
  19. Format settings                          : CABAC / 3 Ref Frames
  20. Format settings, CABAC                   : Yes
  21. Format settings, Reference frames        : 3 frames
  22. Codec ID                                 : V_MPEG4/ISO/AVC
  23. Duration                                 : 1 h 40 min
  24. Bit rate mode                            : Variable
  25. Bit rate                                 : 3 815 kb/s
  26. Maximum bit rate                         : 5 495 kb/s
  27. Width                                    : 1 920 pixels
  28. Height                                   : 1 080 pixels
  29. Display aspect ratio                     : 16:9
  30. Frame rate mode                          : Constant
  31. Frame rate                               : 25.000 FPS
  32. Color space                              : YUV
  33. Chroma subsampling                       : 4:2:0
  34. Bit depth                                : 8 bits
  35. Scan type                                : Progressive
  36. Bits/(Pixel*Frame)                       : 0.074
  37. Stream size                              : 2.68 GiB (97%)
  38. Default                                  : Yes
  39. Forced                                   : No
  40.  
  41. Audio
  42. ID                                       : 2
  43. Format                                   : AAC LC SBR
  44. Format/Info                              : Advanced Audio Codec Low Complexity with Spectral Band Replication
  45. Commercial name                          : HE-AAC
  46. Format settings                          : Explicit
  47. Codec ID                                 : A_AAC-2
  48. Duration                                 : 1 h 40 min
  49. Bit rate                                 : 128 kb/s
  50. Channel(s)                               : 2 channels
  51. Channel layout                           : L R
  52. Sampling rate                            : 48.0 kHz
  53. Frame rate                               : 23.438 FPS (2048 SPF)
  54. Compression mode                         : Lossy
  55. Stream size                              : 92.2 MiB (3%)
  56. Language                                 : English
  57. Default                                  : Yes
  58. Forced                                   : No
  59.  
  60. Text #1
  61. ID                                       : 3
  62. Format                                   : UTF-8
  63. Codec ID                                 : S_TEXT/UTF8
  64. Codec ID/Info                            : UTF-8 Plain Text
  65. Duration                                 : 1 h 40 min
  66. Bit rate                                 : 41 b/s
  67. Count of elements                        : 1166
  68. Stream size                              : 30.7 KiB (0%)
  69. Language                                 : English
  70. Default                                  : No
  71. Forced                                   : No
  72.  
  73. Text #2
  74. ID                                       : 4
  75. Format                                   : UTF-8
  76. Codec ID                                 : S_TEXT/UTF8
  77. Codec ID/Info                            : UTF-8 Plain Text
  78. Duration                                 : 1 h 40 min
  79. Bit rate                                 : 44 b/s
  80. Count of elements                        : 1281
  81. Stream size                              : 32.6 KiB (0%)
  82. Title                                    : SDH
  83. Language                                 : English
  84. Default                                  : No
  85. Forced                                   : No
  86.  
  87.  
  88.