1. 13.The.Musical.2022.1080p.10bit.WEBRip.6CH.x265.HEVC-PSA.mkv
  2. General
  3. Unique ID                                : 289986110096536390581035859187324044167 (0xDA294B14FF12B1E1DF3F5F8550164387)
  4. Complete name                            : D:\13.The.Musical.2022.1080p.10bit.WEBRip.6CH.x265.HEVC-PSA.mkv
  5. Format                                   : Matroska
  6. Format version                           : Version 4
  7. File size                                : 1.95 GiB
  8. Duration                                 : 1 h 34 min
  9. Overall bit rate                         : 2 941 kb/s
  10. Movie name                               : PSArips.com | 13.The.Musical.2022.1080p.10bit.WEBRip.6CH.x265.HEVC-PSA
  11. Encoded date                             : UTC 2022-08-12 15:48:34
  12. Writing application                      : mkvmerge v69.0.0 ('Day And Age') 64-bit
  13. Writing library                          : libebml v1.4.2 + libmatroska v1.6.4
  14.  
  15. Video
  16. ID                                       : 1
  17. Format                                   : HEVC
  18. Format/Info                              : High Efficiency Video Coding
  19. Format profile                           : Main 10@L4@Main
  20. Codec ID                                 : V_MPEGH/ISO/HEVC
  21. Duration                                 : 1 h 34 min
  22. Bit rate                                 : 2 733 kb/s
  23. Width                                    : 1 920 pixels
  24. Height                                   : 960 pixels
  25. Display aspect ratio                     : 2.000
  26. Frame rate mode                          : Constant
  27. Frame rate                               : 24.000 FPS
  28. Color space                              : YUV
  29. Chroma subsampling                       : 4:2:0
  30. Bit depth                                : 10 bits
  31. Bits/(Pixel*Frame)                       : 0.062
  32. Stream size                              : 1.81 GiB (93%)
  33. Default                                  : Yes
  34. Forced                                   : No
  35.  
  36. Audio
  37. ID                                       : 2
  38. Format                                   : AAC LC SBR
  39. Format/Info                              : Advanced Audio Codec Low Complexity with Spectral Band Replication
  40. Commercial name                          : HE-AAC
  41. Format settings                          : Explicit
  42. Codec ID                                 : A_AAC-2
  43. Duration                                 : 1 h 34 min
  44. Bit rate                                 : 199 kb/s
  45. Channel(s)                               : 6 channels
  46. Channel layout                           : C L R Ls Rs LFE
  47. Sampling rate                            : 48.0 kHz
  48. Frame rate                               : 23.438 FPS (2048 SPF)
  49. Compression mode                         : Lossy
  50. Delay relative to video                  : 23 ms
  51. Stream size                              : 135 MiB (7%)
  52. Language                                 : English
  53. Default                                  : Yes
  54. Forced                                   : No
  55.  
  56. Text #1
  57. ID                                       : 3
  58. Format                                   : UTF-8
  59. Codec ID                                 : S_TEXT/UTF8
  60. Codec ID/Info                            : UTF-8 Plain Text
  61. Duration                                 : 1 h 26 min
  62. Bit rate                                 : 46 b/s
  63. Count of elements                        : 905
  64. Stream size                              : 29.3 KiB (0%)
  65. Language                                 : English
  66. Default                                  : Yes
  67. Forced                                   : No
  68.  
  69. Text #2
  70. ID                                       : 4
  71. Format                                   : UTF-8
  72. Codec ID                                 : S_TEXT/UTF8
  73. Codec ID/Info                            : UTF-8 Plain Text
  74. Duration                                 : 1 h 30 min
  75. Bit rate                                 : 96 b/s
  76. Count of elements                        : 1560
  77. Stream size                              : 64.6 KiB (0%)
  78. Title                                    : SDH
  79. Language                                 : English
  80. Default                                  : No
  81. Forced                                   : No
  82.  
  83. Text #3
  84. ID                                       : 5
  85. Format                                   : UTF-8
  86. Codec ID                                 : S_TEXT/UTF8
  87. Codec ID/Info                            : UTF-8 Plain Text
  88. Duration                                 : 1 h 26 min
  89. Bit rate                                 : 113 b/s
  90. Count of elements                        : 1363
  91. Stream size                              : 71.7 KiB (0%)
  92. Language                                 : Arabic
  93. Default                                  : No
  94. Forced                                   : No
  95.  
  96. Text #4
  97. ID                                       : 6
  98. Format                                   : UTF-8
  99. Codec ID                                 : S_TEXT/UTF8
  100. Codec ID/Info                            : UTF-8 Plain Text
  101. Duration                                 : 1 h 31 min
  102. Bit rate                                 : 67 b/s
  103. Count of elements                        : 1346
  104. Stream size                              : 45.2 KiB (0%)
  105. Language                                 : Catalan
  106. Default                                  : No
  107. Forced                                   : No
  108.  
  109. Text #5
  110. ID                                       : 7
  111. Format                                   : UTF-8
  112. Codec ID                                 : S_TEXT/UTF8
  113. Codec ID/Info                            : UTF-8 Plain Text
  114. Duration                                 : 1 h 31 min
  115. Bit rate                                 : 79 b/s
  116. Count of elements                        : 1428
  117. Stream size                              : 52.9 KiB (0%)
  118. Language                                 : Czech
  119. Default                                  : No
  120. Forced                                   : No
  121.  
  122. Text #6
  123. ID                                       : 8
  124. Format                                   : UTF-8
  125. Codec ID                                 : S_TEXT/UTF8
  126. Codec ID/Info                            : UTF-8 Plain Text
  127. Duration                                 : 1 h 31 min
  128. Bit rate                                 : 68 b/s
  129. Count of elements                        : 1335
  130. Stream size                              : 45.6 KiB (0%)
  131. Language                                 : Danish
  132. Default                                  : No
  133. Forced                                   : No
  134.  
  135. Text #7
  136. ID                                       : 9
  137. Format                                   : UTF-8
  138. Codec ID                                 : S_TEXT/UTF8
  139. Codec ID/Info                            : UTF-8 Plain Text
  140. Duration                                 : 1 h 31 min
  141. Bit rate                                 : 75 b/s
  142. Count of elements                        : 1329
  143. Stream size                              : 50.7 KiB (0%)
  144. Language                                 : German
  145. Default                                  : No
  146. Forced                                   : No
  147.  
  148. Text #8
  149. ID                                       : 10
  150. Format                                   : UTF-8
  151. Codec ID                                 : S_TEXT/UTF8
  152. Codec ID/Info                            : UTF-8 Plain Text
  153. Duration                                 : 1 h 26 min
  154. Bit rate                                 : 127 b/s
  155. Count of elements                        : 1363
  156. Stream size                              : 80.7 KiB (0%)
  157. Language                                 : Greek
  158. Default                                  : No
  159. Forced                                   : No
  160.  
  161. Text #9
  162. ID                                       : 11
  163. Format                                   : UTF-8
  164. Codec ID                                 : S_TEXT/UTF8
  165. Codec ID/Info                            : UTF-8 Plain Text
  166. Duration                                 : 1 h 31 min
  167. Bit rate                                 : 45 b/s
  168. Count of elements                        : 954
  169. Stream size                              : 30.3 KiB (0%)
  170. Language                                 : Spanish
  171. Default                                  : No
  172. Forced                                   : No
  173.  
  174. Text #10
  175. ID                                       : 12
  176. Format                                   : UTF-8
  177. Codec ID                                 : S_TEXT/UTF8
  178. Codec ID/Info                            : UTF-8 Plain Text
  179. Duration                                 : 1 h 31 min
  180. Bit rate                                 : 71 b/s
  181. Count of elements                        : 1353
  182. Stream size                              : 47.8 KiB (0%)
  183. Language                                 : Spanish
  184. Default                                  : No
  185. Forced                                   : No
  186.  
  187. Text #11
  188. ID                                       : 13
  189. Format                                   : UTF-8
  190. Codec ID                                 : S_TEXT/UTF8
  191. Codec ID/Info                            : UTF-8 Plain Text
  192. Duration                                 : 1 h 31 min
  193. Bit rate                                 : 78 b/s
  194. Count of elements                        : 1424
  195. Stream size                              : 52.2 KiB (0%)
  196. Title                                    : European
  197. Language                                 : Spanish
  198. Default                                  : No
  199. Forced                                   : No
  200.  
  201. Text #12
  202. ID                                       : 14
  203. Format                                   : UTF-8
  204. Codec ID                                 : S_TEXT/UTF8
  205. Codec ID/Info                            : UTF-8 Plain Text
  206. Duration                                 : 1 h 31 min
  207. Bit rate                                 : 76 b/s
  208. Count of elements                        : 1438
  209. Stream size                              : 50.9 KiB (0%)
  210. Language                                 : Basque
  211. Default                                  : No
  212. Forced                                   : No
  213.  
  214. Text #13
  215. ID                                       : 15
  216. Format                                   : UTF-8
  217. Codec ID                                 : S_TEXT/UTF8
  218. Codec ID/Info                            : UTF-8 Plain Text
  219. Duration                                 : 1 h 31 min
  220. Bit rate                                 : 64 b/s
  221. Count of elements                        : 1164
  222. Stream size                              : 42.8 KiB (0%)
  223. Language                                 : Finnish
  224. Default                                  : No
  225. Forced                                   : No
  226.  
  227. Text #14
  228. ID                                       : 16
  229. Format                                   : UTF-8
  230. Codec ID                                 : S_TEXT/UTF8
  231. Codec ID/Info                            : UTF-8 Plain Text
  232. Duration                                 : 1 h 31 min
  233. Bit rate                                 : 40 b/s
  234. Count of elements                        : 893
  235. Stream size                              : 27.0 KiB (0%)
  236. Language                                 : fil
  237. Default                                  : No
  238. Forced                                   : No
  239.  
  240. Text #15
  241. ID                                       : 17
  242. Format                                   : UTF-8
  243. Codec ID                                 : S_TEXT/UTF8
  244. Codec ID/Info                            : UTF-8 Plain Text
  245. Duration                                 : 1 h 31 min
  246. Bit rate                                 : 75 b/s
  247. Count of elements                        : 1423
  248. Stream size                              : 50.3 KiB (0%)
  249. Language                                 : French
  250. Default                                  : No
  251. Forced                                   : No
  252.  
  253. Text #16
  254. ID                                       : 18
  255. Format                                   : UTF-8
  256. Codec ID                                 : S_TEXT/UTF8
  257. Codec ID/Info                            : UTF-8 Plain Text
  258. Duration                                 : 1 h 31 min
  259. Bit rate                                 : 72 b/s
  260. Count of elements                        : 1340
  261. Stream size                              : 48.4 KiB (0%)
  262. Language                                 : Galician
  263. Default                                  : No
  264. Forced                                   : No
  265.  
  266. Text #17
  267. ID                                       : 19
  268. Format                                   : UTF-8
  269. Codec ID                                 : S_TEXT/UTF8
  270. Codec ID/Info                            : UTF-8 Plain Text
  271. Duration                                 : 1 h 26 min
  272. Bit rate                                 : 115 b/s
  273. Count of elements                        : 1361
  274. Stream size                              : 73.2 KiB (0%)
  275. Language                                 : Hebrew
  276. Default                                  : No
  277. Forced                                   : No
  278.  
  279. Text #18
  280. ID                                       : 20
  281. Format                                   : UTF-8
  282. Codec ID                                 : S_TEXT/UTF8
  283. Codec ID/Info                            : UTF-8 Plain Text
  284. Duration                                 : 1 h 31 min
  285. Bit rate                                 : 70 b/s
  286. Count of elements                        : 1417
  287. Stream size                              : 47.1 KiB (0%)
  288. Language                                 : Croatian
  289. Default                                  : No
  290. Forced                                   : No
  291.  
  292. Text #19
  293. ID                                       : 21
  294. Format                                   : UTF-8
  295. Codec ID                                 : S_TEXT/UTF8
  296. Codec ID/Info                            : UTF-8 Plain Text
  297. Duration                                 : 1 h 31 min
  298. Bit rate                                 : 75 b/s
  299. Count of elements                        : 1415
  300. Stream size                              : 50.6 KiB (0%)
  301. Language                                 : Hungarian
  302. Default                                  : No
  303. Forced                                   : No
  304.  
  305. Text #20
  306. ID                                       : 22
  307. Format                                   : UTF-8
  308. Codec ID                                 : S_TEXT/UTF8
  309. Codec ID/Info                            : UTF-8 Plain Text
  310. Duration                                 : 1 h 31 min
  311. Bit rate                                 : 71 b/s
  312. Count of elements                        : 1386
  313. Stream size                              : 47.6 KiB (0%)
  314. Language                                 : Indonesian
  315. Default                                  : No
  316. Forced                                   : No
  317.  
  318. Text #21
  319. ID                                       : 23
  320. Format                                   : UTF-8
  321. Codec ID                                 : S_TEXT/UTF8
  322. Codec ID/Info                            : UTF-8 Plain Text
  323. Duration                                 : 1 h 31 min
  324. Bit rate                                 : 71 b/s
  325. Count of elements                        : 1346
  326. Stream size                              : 47.6 KiB (0%)
  327. Language                                 : Italian
  328. Default                                  : No
  329. Forced                                   : No
  330.  
  331. Text #22
  332. ID                                       : 24
  333. Format                                   : UTF-8
  334. Codec ID                                 : S_TEXT/UTF8
  335. Codec ID/Info                            : UTF-8 Plain Text
  336. Duration                                 : 1 h 26 min
  337. Bit rate                                 : 72 b/s
  338. Count of elements                        : 1418
  339. Stream size                              : 45.6 KiB (0%)
  340. Language                                 : Japanese
  341. Default                                  : No
  342. Forced                                   : No
  343.  
  344. Text #23
  345. ID                                       : 25
  346. Format                                   : UTF-8
  347. Codec ID                                 : S_TEXT/UTF8
  348. Codec ID/Info                            : UTF-8 Plain Text
  349. Duration                                 : 1 h 31 min
  350. Bit rate                                 : 84 b/s
  351. Count of elements                        : 1527
  352. Stream size                              : 56.7 KiB (0%)
  353. Language                                 : Korean
  354. Default                                  : No
  355. Forced                                   : No
  356.  
  357. Text #24
  358. ID                                       : 26
  359. Format                                   : UTF-8
  360. Codec ID                                 : S_TEXT/UTF8
  361. Codec ID/Info                            : UTF-8 Plain Text
  362. Duration                                 : 1 h 26 min
  363. Bit rate                                 : 74 b/s
  364. Count of elements                        : 1362
  365. Stream size                              : 47.2 KiB (0%)
  366. Language                                 : Malay
  367. Default                                  : No
  368. Forced                                   : No
  369.  
  370. Text #25
  371. ID                                       : 27
  372. Format                                   : UTF-8
  373. Codec ID                                 : S_TEXT/UTF8
  374. Codec ID/Info                            : UTF-8 Plain Text
  375. Duration                                 : 1 h 31 min
  376. Bit rate                                 : 69 b/s
  377. Count of elements                        : 1266
  378. Stream size                              : 46.1 KiB (0%)
  379. Language                                 : Norwegian Bokmal
  380. Default                                  : No
  381. Forced                                   : No
  382.  
  383. Text #26
  384. ID                                       : 28
  385. Format                                   : UTF-8
  386. Codec ID                                 : S_TEXT/UTF8
  387. Codec ID/Info                            : UTF-8 Plain Text
  388. Duration                                 : 1 h 31 min
  389. Bit rate                                 : 76 b/s
  390. Count of elements                        : 1395
  391. Stream size                              : 50.9 KiB (0%)
  392. Language                                 : Dutch
  393. Default                                  : No
  394. Forced                                   : No
  395.  
  396. Text #27
  397. ID                                       : 29
  398. Format                                   : UTF-8
  399. Codec ID                                 : S_TEXT/UTF8
  400. Codec ID/Info                            : UTF-8 Plain Text
  401. Duration                                 : 1 h 31 min
  402. Bit rate                                 : 70 b/s
  403. Count of elements                        : 1312
  404. Stream size                              : 47.3 KiB (0%)
  405. Language                                 : Polish
  406. Default                                  : No
  407. Forced                                   : No
  408.  
  409. Text #28
  410. ID                                       : 30
  411. Format                                   : UTF-8
  412. Codec ID                                 : S_TEXT/UTF8
  413. Codec ID/Info                            : UTF-8 Plain Text
  414. Duration                                 : 1 h 31 min
  415. Bit rate                                 : 72 b/s
  416. Count of elements                        : 1319
  417. Stream size                              : 48.4 KiB (0%)
  418. Language                                 : Portuguese
  419. Default                                  : No
  420. Forced                                   : No
  421.  
  422. Text #29
  423. ID                                       : 31
  424. Format                                   : UTF-8
  425. Codec ID                                 : S_TEXT/UTF8
  426. Codec ID/Info                            : UTF-8 Plain Text
  427. Duration                                 : 1 h 26 min
  428. Bit rate                                 : 45 b/s
  429. Count of elements                        : 977
  430. Stream size                              : 28.6 KiB (0%)
  431. Title                                    : Brazilian
  432. Language                                 : Portuguese
  433. Default                                  : No
  434. Forced                                   : No
  435.  
  436. Text #30
  437. ID                                       : 32
  438. Format                                   : UTF-8
  439. Codec ID                                 : S_TEXT/UTF8
  440. Codec ID/Info                            : UTF-8 Plain Text
  441. Duration                                 : 1 h 31 min
  442. Bit rate                                 : 78 b/s
  443. Count of elements                        : 1397
  444. Stream size                              : 52.4 KiB (0%)
  445. Title                                    : Brazilian
  446. Language                                 : Portuguese
  447. Default                                  : No
  448. Forced                                   : No
  449.  
  450. Text #31
  451. ID                                       : 33
  452. Format                                   : UTF-8
  453. Codec ID                                 : S_TEXT/UTF8
  454. Codec ID/Info                            : UTF-8 Plain Text
  455. Duration                                 : 1 h 31 min
  456. Bit rate                                 : 53 b/s
  457. Count of elements                        : 1186
  458. Stream size                              : 35.5 KiB (0%)
  459. Title                                    : Brazilian (SDH)
  460. Language                                 : Portuguese
  461. Default                                  : No
  462. Forced                                   : No
  463.  
  464. Text #32
  465. ID                                       : 34
  466. Format                                   : UTF-8
  467. Codec ID                                 : S_TEXT/UTF8
  468. Codec ID/Info                            : UTF-8 Plain Text
  469. Duration                                 : 1 h 31 min
  470. Bit rate                                 : 86 b/s
  471. Count of elements                        : 1423
  472. Stream size                              : 57.5 KiB (0%)
  473. Language                                 : Romanian
  474. Default                                  : No
  475. Forced                                   : No
  476.  
  477. Text #33
  478. ID                                       : 35
  479. Format                                   : UTF-8
  480. Codec ID                                 : S_TEXT/UTF8
  481. Codec ID/Info                            : UTF-8 Plain Text
  482. Duration                                 : 1 h 31 min
  483. Bit rate                                 : 110 b/s
  484. Count of elements                        : 1346
  485. Stream size                              : 73.8 KiB (0%)
  486. Language                                 : Russian
  487. Default                                  : No
  488. Forced                                   : No
  489.  
  490. Text #34
  491. ID                                       : 36
  492. Format                                   : UTF-8
  493. Codec ID                                 : S_TEXT/UTF8
  494. Codec ID/Info                            : UTF-8 Plain Text
  495. Duration                                 : 1 h 26 min
  496. Bit rate                                 : 72 b/s
  497. Count of elements                        : 1269
  498. Stream size                              : 45.7 KiB (0%)
  499. Language                                 : Swedish
  500. Default                                  : No
  501. Forced                                   : No
  502.  
  503. Text #35
  504. ID                                       : 37
  505. Format                                   : UTF-8
  506. Codec ID                                 : S_TEXT/UTF8
  507. Codec ID/Info                            : UTF-8 Plain Text
  508. Duration                                 : 1 h 26 min
  509. Bit rate                                 : 183 b/s
  510. Count of elements                        : 1367
  511. Stream size                              : 116 KiB (0%)
  512. Language                                 : Thai
  513. Default                                  : No
  514. Forced                                   : No
  515.  
  516. Text #36
  517. ID                                       : 38
  518. Format                                   : UTF-8
  519. Codec ID                                 : S_TEXT/UTF8
  520. Codec ID/Info                            : UTF-8 Plain Text
  521. Duration                                 : 1 h 26 min
  522. Bit rate                                 : 74 b/s
  523. Count of elements                        : 1358
  524. Stream size                              : 46.8 KiB (0%)
  525. Language                                 : Turkish
  526. Default                                  : No
  527. Forced                                   : No
  528.  
  529. Text #37
  530. ID                                       : 39
  531. Format                                   : UTF-8
  532. Codec ID                                 : S_TEXT/UTF8
  533. Codec ID/Info                            : UTF-8 Plain Text
  534. Duration                                 : 1 h 26 min
  535. Bit rate                                 : 119 b/s
  536. Count of elements                        : 1359
  537. Stream size                              : 75.8 KiB (0%)
  538. Language                                 : Ukrainian
  539. Default                                  : No
  540. Forced                                   : No
  541.  
  542. Text #38
  543. ID                                       : 40
  544. Format                                   : UTF-8
  545. Codec ID                                 : S_TEXT/UTF8
  546. Codec ID/Info                            : UTF-8 Plain Text
  547. Duration                                 : 1 h 31 min
  548. Bit rate                                 : 109 b/s
  549. Count of elements                        : 1422
  550. Stream size                              : 73.0 KiB (0%)
  551. Language                                 : Vietnamese
  552. Default                                  : No
  553. Forced                                   : No
  554.  
  555. Text #39
  556. ID                                       : 41
  557. Format                                   : UTF-8
  558. Codec ID                                 : S_TEXT/UTF8
  559. Codec ID/Info                            : UTF-8 Plain Text
  560. Duration                                 : 1 h 31 min
  561. Bit rate                                 : 80 b/s
  562. Count of elements                        : 1456
  563. Stream size                              : 53.7 KiB (0%)
  564. Title                                    : Simplified
  565. Language                                 : Chinese
  566. Default                                  : No
  567. Forced                                   : No
  568.  
  569. Text #40
  570. ID                                       : 42
  571. Format                                   : UTF-8
  572. Codec ID                                 : S_TEXT/UTF8
  573. Codec ID/Info                            : UTF-8 Plain Text
  574. Duration                                 : 1 h 31 min
  575. Bit rate                                 : 72 b/s
  576. Count of elements                        : 1443
  577. Stream size                              : 48.6 KiB (0%)
  578. Title                                    : Traditional
  579. Language                                 : Chinese
  580. Default                                  : No
  581. Forced                                   : No
  582.  
  583.  
  584.