1. Dakota.2022.HDRip.XviD.AC3-EVO.avi
  2. General
  3. Unique ID                                : 185089010092551601651413081947282372888 (0x8B3ED8C0C4E65AFAED1E2DC362D07918)
  4. Complete name                            : D:\Dakota.2022.HDRip.XviD.AC3-EVO.avi
  5. Format                                   : Matroska
  6. Format version                           : Version 4
  7. File size                                : 1.31 GiB
  8. Duration                                 : 1 h 36 min
  9. Overall bit rate                         : 1 958 kb/s
  10. Encoded date                             : UTC 2022-05-20 04:54:59
  11. Writing application                      : mkvmerge v67.0.0 ('Under Stars') 64-bit
  12. Writing library                          : libebml v1.4.2 + libmatroska v1.6.4
  13. FileExtension_Invalid                    : mkv mk3d mka mks
  14.  
  15. Video
  16. ID                                       : 1
  17. Format                                   : AVC
  18. Format/Info                              : Advanced Video Codec
  19. Format profile                           : High@L3
  20. Format settings                          : CABAC / 4 Ref Frames
  21. Format settings, CABAC                   : Yes
  22. Format settings, Reference frames        : 4 frames
  23. Codec ID                                 : V_MPEG4/ISO/AVC
  24. Duration                                 : 1 h 36 min
  25. Bit rate                                 : 1 600 kb/s
  26. Width                                    : 720 pixels
  27. Height                                   : 300 pixels
  28. Display aspect ratio                     : 2.40:1
  29. Original display aspect ratio            : 2.40:1
  30. Frame rate mode                          : Constant
  31. Frame rate                               : 23.976 (24000/1001) FPS
  32. Color space                              : YUV
  33. Chroma subsampling                       : 4:2:0
  34. Bit depth                                : 8 bits
  35. Scan type                                : Progressive
  36. Bits/(Pixel*Frame)                       : 0.309
  37. Stream size                              : 1.06 GiB (80%)
  38. Writing library                          : x264 core 164 r3079 d9a19f0
  39. Encoding settings                        : cabac=1 / ref=1 / deblock=1:0:0 / analyse=0x3:0x113 / me=hex / subme=2 / psy=1 / psy_rd=1.00:0.00 / mixed_ref=0 / me_range=16 / chroma_me=1 / trellis=0 / 8x8dct=1 / cqm=0 / deadzone=21,11 / fast_pskip=1 / chroma_qp_offset=0 / threads=9 / lookahead_threads=2 / sliced_threads=0 / nr=0 / decimate=1 / interlaced=0 / bluray_compat=0 / constrained_intra=0 / bframes=3 / b_pyramid=2 / b_adapt=1 / b_bias=0 / direct=1 / weightb=1 / open_gop=0 / weightp=1 / keyint=250 / keyint_min=23 / scenecut=40 / intra_refresh=0 / rc_lookahead=10 / rc=abr / mbtree=1 / bitrate=1600 / ratetol=1.0 / qcomp=0.60 / qpmin=0 / qpmax=69 / qpstep=4 / ip_ratio=1.40 / aq=1:1.00
  40. Default                                  : Yes
  41. Forced                                   : No
  42. Color range                              : Limited
  43. Color primaries                          : BT.709
  44. Transfer characteristics                 : BT.709
  45. Matrix coefficients                      : BT.709
  46.  
  47. Audio
  48. ID                                       : 2
  49. Format                                   : AC-3
  50. Format/Info                              : Audio Coding 3
  51. Commercial name                          : Dolby Digital
  52. Codec ID                                 : A_AC3
  53. Duration                                 : 1 h 36 min
  54. Bit rate mode                            : Constant
  55. Bit rate                                 : 384 kb/s
  56. Channel(s)                               : 6 channels
  57. Channel layout                           : L R C LFE Ls Rs
  58. Sampling rate                            : 48.0 kHz
  59. Frame rate                               : 31.250 FPS (1536 SPF)
  60. Bit depth                                : 16 bits
  61. Compression mode                         : Lossy
  62. Stream size                              : 264 MiB (20%)
  63. Language                                 : English
  64. Service kind                             : Complete Main
  65. Default                                  : Yes
  66. Forced                                   : No
  67.  
  68.  
  69.