1. Costa.Concordia.Chronik.einer.Katastrophe.2022.1080p.HMAX.WEB-DL.DD5.1.H264-dB.mkv
  2. General
  3. Unique ID                                : 317623731935877891385073130413545424298 (0xEEF41B0B1D2222065DF2AC247AEB05AA)
  4. Complete name                            : D:\Costa.Concordia.Chronik.einer.Katastrophe.2022.1080p.HMAX.WEB-DL.DD5.1.H264-dB.mkv
  5. Format                                   : Matroska
  6. Format version                           : Version 4
  7. File size                                : 5.58 GiB
  8. Duration                                 : 1 h 32 min
  9. Overall bit rate mode                    : Variable
  10. Overall bit rate                         : 8 597 kb/s
  11. Writing application                      : mkvmerge v71.1.0 ('Fortitude') 64-bit
  12. Writing library                          : libebml v1.4.4 + libmatroska v1.7.1
  13.  
  14. Video
  15. ID                                       : 1
  16. Format                                   : AVC
  17. Format/Info                              : Advanced Video Codec
  18. Format profile                           : High@L4
  19. Format settings                          : CABAC / 4 Ref Frames
  20. Format settings, CABAC                   : Yes
  21. Format settings, Reference frames        : 4 frames
  22. Codec ID                                 : V_MPEG4/ISO/AVC
  23. Duration                                 : 1 h 32 min
  24. Bit rate mode                            : Variable
  25. Bit rate                                 : 8 250 kb/s
  26. Maximum bit rate                         : 12.4 Mb/s
  27. Width                                    : 1 920 pixels
  28. Height                                   : 1 080 pixels
  29. Display aspect ratio                     : 16:9
  30. Frame rate mode                          : Constant
  31. Frame rate                               : 25.000 FPS
  32. Color space                              : YUV
  33. Chroma subsampling                       : 4:2:0
  34. Bit depth                                : 8 bits
  35. Scan type                                : Progressive
  36. Bits/(Pixel*Frame)                       : 0.159
  37. Stream size                              : 5.33 GiB (95%)
  38. Writing library                          : x264 core 157 r2965 861cec4
  39. Encoding settings                        : cabac=1 / ref=4 / deblock=1:0:0 / analyse=0x3:0x113 / me=hex / subme=7 / psy=1 / psy_rd=1.00:0.00 / mixed_ref=1 / me_range=16 / chroma_me=1 / trellis=1 / 8x8dct=1 / cqm=0 / deadzone=21,11 / fast_pskip=1 / chroma_qp_offset=-2 / threads=34 / lookahead_threads=5 / sliced_threads=0 / nr=0 / decimate=1 / interlaced=0 / bluray_compat=0 / constrained_intra=0 / bframes=3 / b_pyramid=2 / b_adapt=1 / b_bias=0 / direct=1 / weightb=1 / open_gop=0 / weightp=2 / keyint=100 / keyint_min=100 / scenecut=40 / intra_refresh=0 / rc_lookahead=40 / rc=2pass / mbtree=1 / bitrate=8250 / ratetol=1.0 / qcomp=0.60 / qpmin=0 / qpmax=69 / qpstep=4 / cplxblur=20.0 / qblur=0.5 / vbv_maxrate=12375 / vbv_bufsize=6187 / nal_hrd=vbr / filler=0 / ip_ratio=1.40 / aq=1:1.00
  40. Default                                  : Yes
  41. Forced                                   : No
  42. Color range                              : Limited
  43. Color primaries                          : BT.709
  44. Transfer characteristics                 : BT.709
  45. Matrix coefficients                      : BT.709
  46.  
  47. Audio
  48. ID                                       : 2
  49. Format                                   : AC-3
  50. Format/Info                              : Audio Coding 3
  51. Commercial name                          : Dolby Digital
  52. Codec ID                                 : A_AC3
  53. Duration                                 : 1 h 32 min
  54. Bit rate mode                            : Constant
  55. Bit rate                                 : 384 kb/s
  56. Channel(s)                               : 6 channels
  57. Channel layout                           : L R C LFE Ls Rs
  58. Sampling rate                            : 48.0 kHz
  59. Frame rate                               : 31.250 FPS (1536 SPF)
  60. Bit depth                                : 16 bits
  61. Compression mode                         : Lossy
  62. Stream size                              : 255 MiB (4%)
  63. Title                                    : Italian
  64. Language                                 : Italian
  65. Service kind                             : Complete Main
  66. Default                                  : Yes
  67. Forced                                   : No
  68.  
  69. Text #1
  70. ID                                       : 3
  71. Format                                   : UTF-8
  72. Codec ID                                 : S_TEXT/UTF8
  73. Codec ID/Info                            : UTF-8 Plain Text
  74. Duration                                 : 1 h 31 min
  75. Bit rate                                 : 86 b/s
  76. Count of elements                        : 1443
  77. Stream size                              : 57.5 KiB (0%)
  78. Language                                 : English
  79. Default                                  : Yes
  80. Forced                                   : No
  81.  
  82. Text #2
  83. ID                                       : 4
  84. Format                                   : UTF-8
  85. Codec ID                                 : S_TEXT/UTF8
  86. Codec ID/Info                            : UTF-8 Plain Text
  87. Duration                                 : 1 h 31 min
  88. Bit rate                                 : 83 b/s
  89. Count of elements                        : 1419
  90. Stream size                              : 55.8 KiB (0%)
  91. Language                                 : Portuguese
  92. Default                                  : No
  93. Forced                                   : No
  94.  
  95. Text #3
  96. ID                                       : 5
  97. Format                                   : UTF-8
  98. Codec ID                                 : S_TEXT/UTF8
  99. Codec ID/Info                            : UTF-8 Plain Text
  100. Duration                                 : 1 h 31 min
  101. Bit rate                                 : 90 b/s
  102. Count of elements                        : 1402
  103. Stream size                              : 60.3 KiB (0%)
  104. Language                                 : Spanish
  105. Default                                  : No
  106. Forced                                   : No
  107.  
  108. Text #4
  109. ID                                       : 6
  110. Format                                   : UTF-8
  111. Codec ID                                 : S_TEXT/UTF8
  112. Codec ID/Info                            : UTF-8 Plain Text
  113. Duration                                 : 1 h 31 min
  114. Bit rate                                 : 78 b/s
  115. Count of elements                        : 1088
  116. Stream size                              : 52.5 KiB (0%)
  117. Language                                 : Polish
  118. Default                                  : No
  119. Forced                                   : No
  120.  
  121. Text #5
  122. ID                                       : 7
  123. Format                                   : UTF-8
  124. Codec ID                                 : S_TEXT/UTF8
  125. Codec ID/Info                            : UTF-8 Plain Text
  126. Duration                                 : 1 h 31 min
  127. Bit rate                                 : 77 b/s
  128. Count of elements                        : 1419
  129. Stream size                              : 51.5 KiB (0%)
  130. Language                                 : Swedish
  131. Default                                  : No
  132. Forced                                   : No
  133.  
  134. Text #6
  135. ID                                       : 8
  136. Format                                   : UTF-8
  137. Codec ID                                 : S_TEXT/UTF8
  138. Codec ID/Info                            : UTF-8 Plain Text
  139. Duration                                 : 1 h 31 min
  140. Bit rate                                 : 77 b/s
  141. Count of elements                        : 1207
  142. Stream size                              : 51.8 KiB (0%)
  143. Language                                 : Danish
  144. Default                                  : No
  145. Forced                                   : No
  146.  
  147. Text #7
  148. ID                                       : 9
  149. Format                                   : UTF-8
  150. Codec ID                                 : S_TEXT/UTF8
  151. Codec ID/Info                            : UTF-8 Plain Text
  152. Duration                                 : 1 h 31 min
  153. Bit rate                                 : 76 b/s
  154. Count of elements                        : 1410
  155. Stream size                              : 51.3 KiB (0%)
  156. Language                                 : Finnish
  157. Default                                  : No
  158. Forced                                   : No
  159.  
  160. Text #8
  161. ID                                       : 10
  162. Format                                   : UTF-8
  163. Codec ID                                 : S_TEXT/UTF8
  164. Codec ID/Info                            : UTF-8 Plain Text
  165. Duration                                 : 1 h 31 min
  166. Bit rate                                 : 72 b/s
  167. Count of elements                        : 1419
  168. Stream size                              : 48.6 KiB (0%)
  169. Language                                 : Dutch
  170. Default                                  : No
  171. Forced                                   : No
  172.  
  173. Text #9
  174. ID                                       : 11
  175. Format                                   : UTF-8
  176. Codec ID                                 : S_TEXT/UTF8
  177. Codec ID/Info                            : UTF-8 Plain Text
  178. Duration                                 : 1 h 32 min
  179. Bit rate                                 : 77 b/s
  180. Count of elements                        : 1275
  181. Stream size                              : 52.7 KiB (0%)
  182. Language                                 : Norwegian
  183. Default                                  : No
  184. Forced                                   : No
  185.  
  186. Text #10
  187. ID                                       : 12
  188. Format                                   : UTF-8
  189. Codec ID                                 : S_TEXT/UTF8
  190. Codec ID/Info                            : UTF-8 Plain Text
  191. Duration                                 : 1 h 31 min
  192. Bit rate                                 : 90 b/s
  193. Count of elements                        : 1330
  194. Stream size                              : 60.6 KiB (0%)
  195. Language                                 : Hungarian
  196. Default                                  : No
  197. Forced                                   : No
  198.  
  199. Text #11
  200. ID                                       : 13
  201. Format                                   : UTF-8
  202. Codec ID                                 : S_TEXT/UTF8
  203. Codec ID/Info                            : UTF-8 Plain Text
  204. Duration                                 : 1 h 31 min
  205. Bit rate                                 : 140 b/s
  206. Count of elements                        : 1341
  207. Stream size                              : 94.2 KiB (0%)
  208. Language                                 : Bulgarian
  209. Default                                  : No
  210. Forced                                   : No
  211.  
  212. Text #12
  213. ID                                       : 14
  214. Format                                   : UTF-8
  215. Codec ID                                 : S_TEXT/UTF8
  216. Codec ID/Info                            : UTF-8 Plain Text
  217. Duration                                 : 1 h 31 min
  218. Bit rate                                 : 72 b/s
  219. Count of elements                        : 1101
  220. Stream size                              : 48.3 KiB (0%)
  221. Language                                 : Croatian
  222. Default                                  : No
  223. Forced                                   : No
  224.  
  225. Text #13
  226. ID                                       : 15
  227. Format                                   : UTF-8
  228. Codec ID                                 : S_TEXT/UTF8
  229. Codec ID/Info                            : UTF-8 Plain Text
  230. Duration                                 : 1 h 31 min
  231. Bit rate                                 : 78 b/s
  232. Count of elements                        : 1304
  233. Stream size                              : 52.7 KiB (0%)
  234. Language                                 : Romanian
  235. Default                                  : No
  236. Forced                                   : No
  237.  
  238. Text #14
  239. ID                                       : 16
  240. Format                                   : UTF-8
  241. Codec ID                                 : S_TEXT/UTF8
  242. Codec ID/Info                            : UTF-8 Plain Text
  243. Duration                                 : 1 h 31 min
  244. Bit rate                                 : 72 b/s
  245. Count of elements                        : 1101
  246. Stream size                              : 48.3 KiB (0%)
  247. Language                                 : Serbian
  248. Default                                  : No
  249. Forced                                   : No
  250.  
  251. Text #15
  252. ID                                       : 17
  253. Format                                   : UTF-8
  254. Codec ID                                 : S_TEXT/UTF8
  255. Codec ID/Info                            : UTF-8 Plain Text
  256. Duration                                 : 1 h 31 min
  257. Bit rate                                 : 80 b/s
  258. Count of elements                        : 1446
  259. Stream size                              : 53.5 KiB (0%)
  260. Language                                 : Czech
  261. Default                                  : No
  262. Forced                                   : No
  263.  
  264. Text #16
  265. ID                                       : 18
  266. Format                                   : UTF-8
  267. Codec ID                                 : S_TEXT/UTF8
  268. Codec ID/Info                            : UTF-8 Plain Text
  269. Duration                                 : 1 h 31 min
  270. Bit rate                                 : 72 b/s
  271. Count of elements                        : 1101
  272. Stream size                              : 48.5 KiB (0%)
  273. Language                                 : Slovenian
  274. Default                                  : No
  275. Forced                                   : No
  276.  
  277. Text #17
  278. ID                                       : 19
  279. Format                                   : UTF-8
  280. Codec ID                                 : S_TEXT/UTF8
  281. Codec ID/Info                            : UTF-8 Plain Text
  282. Duration                                 : 1 h 31 min
  283. Bit rate                                 : 124 b/s
  284. Count of elements                        : 1101
  285. Stream size                              : 83.4 KiB (0%)
  286. Language                                 : Macedonian
  287. Default                                  : No
  288. Forced                                   : No
  289.  
  290.  
  291.