1. Sin.2019.ITALIAN.1080p.BluRay.x264.DD5.1.mkv
  2. General
  3. Unique ID                                : 156646634744828405920496861174098306493 (0x75D90B615AA58C805CEF14FB375025BD)
  4. Complete name                            : D:\Sin.2019.ITALIAN.1080p.BluRay.x264.DD5.1.mkv
  5. Format                                   : Matroska
  6. Format version                           : Version 4
  7. File size                                : 10.6 GiB
  8. Duration                                 : 2 h 16 min
  9. Overall bit rate                         : 11.1 Mb/s
  10. Encoded date                             : UTC 2022-10-29 19:56:44
  11. Writing application                      : mkvmerge v71.1.0 ('Fortitude') 64-bit
  12. Writing library                          : libebml v1.4.4 + libmatroska v1.7.1
  13.  
  14. Video
  15. ID                                       : 1
  16. Format                                   : AVC
  17. Format/Info                              : Advanced Video Codec
  18. Format profile                           : High@L4.1
  19. Format settings                          : CABAC / 5 Ref Frames
  20. Format settings, CABAC                   : Yes
  21. Format settings, Reference frames        : 5 frames
  22. Codec ID                                 : V_MPEG4/ISO/AVC
  23. Duration                                 : 2 h 16 min
  24. Bit rate                                 : 10.5 Mb/s
  25. Width                                    : 1 440 pixels
  26. Height                                   : 1 080 pixels
  27. Display aspect ratio                     : 4:3
  28. Frame rate mode                          : Constant
  29. Frame rate                               : 24.000 FPS
  30. Color space                              : YUV
  31. Chroma subsampling                       : 4:2:0
  32. Bit depth                                : 8 bits
  33. Scan type                                : Progressive
  34. Bits/(Pixel*Frame)                       : 0.281
  35. Stream size                              : 9.96 GiB (94%)
  36. Writing library                          : x264 core 161 r3033 0d754ec
  37. Encoding settings                        : cabac=1 / ref=5 / deblock=1:-2:-2 / analyse=0x3:0x133 / me=hex / subme=7 / psy=1 / psy_rd=1.05:0.15 / mixed_ref=1 / me_range=16 / chroma_me=1 / trellis=1 / 8x8dct=1 / cqm=0 / deadzone=21,11 / fast_pskip=1 / chroma_qp_offset=-3 / threads=34 / lookahead_threads=5 / sliced_threads=0 / nr=0 / decimate=1 / interlaced=0 / bluray_compat=0 / constrained_intra=0 / bframes=3 / b_pyramid=2 / b_adapt=1 / b_bias=0 / direct=1 / weightb=1 / open_gop=0 / weightp=2 / keyint=240 / keyint_min=24 / scenecut=40 / intra_refresh=0 / rc_lookahead=40 / rc=2pass / mbtree=0 / bitrate=10485 / ratetol=1.0 / qcomp=0.65 / qpmin=0 / qpmax=69 / qpstep=4 / cplxblur=20.0 / qblur=0.5 / vbv_maxrate=50000 / vbv_bufsize=62500 / nal_hrd=none / filler=0 / ip_ratio=1.40 / pb_ratio=1.30 / aq=1:1.00
  38. Language                                 : English
  39. Default                                  : Yes
  40. Forced                                   : No
  41.  
  42. Audio
  43. ID                                       : 2
  44. Format                                   : AC-3
  45. Format/Info                              : Audio Coding 3
  46. Commercial name                          : Dolby Digital
  47. Codec ID                                 : A_AC3
  48. Duration                                 : 2 h 16 min
  49. Bit rate mode                            : Constant
  50. Bit rate                                 : 640 kb/s
  51. Channel(s)                               : 6 channels
  52. Channel layout                           : L R C LFE Ls Rs
  53. Sampling rate                            : 48.0 kHz
  54. Frame rate                               : 31.250 FPS (1536 SPF)
  55. Bit depth                                : 16 bits
  56. Compression mode                         : Lossy
  57. Stream size                              : 623 MiB (6%)
  58. Title                                    : AC3 iTA
  59. Language                                 : Italian
  60. Service kind                             : Complete Main
  61. Default                                  : No
  62. Forced                                   : No
  63.  
  64. Text
  65. ID                                       : 3
  66. Format                                   : UTF-8
  67. Codec ID                                 : S_TEXT/UTF8
  68. Codec ID/Info                            : UTF-8 Plain Text
  69. Duration                                 : 2 h 4 min
  70. Bit rate                                 : 51 b/s
  71. Count of elements                        : 1385
  72. Stream size                              : 47.1 KiB (0%)
  73. Language                                 : English
  74. Default                                  : No
  75. Forced                                   : No
  76.  
  77. Menu
  78. 00:00:00.000                             : :Capitolo 01
  79. 00:10:44.792                             : :Capitolo 02
  80. 00:18:12.042                             : :Capitolo 03
  81. 00:30:01.333                             : :Capitolo 04
  82. 00:42:00.208                             : :Capitolo 05
  83. 00:54:27.250                             : :Capitolo 06
  84. 01:06:32.875                             : :Capitolo 07
  85. 01:16:53.708                             : :Capitolo 08
  86. 01:26:08.417                             : :Capitolo 09
  87. 01:39:01.625                             : :Capitolo 10
  88. 01:49:00.750                             : :Capitolo 11
  89. 01:58:27.542                             : :Capitolo 12
  90. 02:08:32.208                             : :Capitolo 13
  91.  
  92.  
  93.