1. alice.and.the.mayor.2019.720p.web.h264-skyfire.mkv
  2. General
  3. Unique ID                                : 264577296447852684592730661581942532354 (0xC70BBBD93A7EC6DCBAF5E3114175A902)
  4. Complete name                            : D:\alice.and.the.mayor.2019.720p.web.h264-skyfire.mkv
  5. Format                                   : Matroska
  6. Format version                           : Version 4
  7. File size                                : 3.38 GiB
  8. Duration                                 : 1 h 44 min
  9. Overall bit rate                         : 4 619 kb/s
  10. Encoded date                             : UTC 2021-08-29 22:00:30
  11. Writing application                      : mkvmerge v51.0.0 ('I Wish') 64-bit
  12. Writing library                          : libebml v1.4.0 + libmatroska v1.6.2
  13.  
  14. Video
  15. ID                                       : 1
  16. Format                                   : AVC
  17. Format/Info                              : Advanced Video Codec
  18. Format profile                           : Main@L3.1
  19. Format settings                          : CABAC / 4 Ref Frames
  20. Format settings, CABAC                   : Yes
  21. Format settings, Reference frames        : 4 frames
  22. Format settings, GOP                     : M=4, N=48
  23. Codec ID                                 : V_MPEG4/ISO/AVC
  24. Duration                                 : 1 h 44 min
  25. Bit rate                                 : 4 572 kb/s
  26. Width                                    : 1 280 pixels
  27. Height                                   : 690 pixels
  28. Display aspect ratio                     : 1.85:1
  29. Original display aspect ratio            : 1.85:1
  30. Frame rate mode                          : Constant
  31. Frame rate                               : 24.000 FPS
  32. Color space                              : YUV
  33. Chroma subsampling                       : 4:2:0
  34. Bit depth                                : 8 bits
  35. Scan type                                : Progressive
  36. Bits/(Pixel*Frame)                       : 0.216
  37. Stream size                              : 3.29 GiB (97%)
  38. Writing library                          : x264 core 155 r2917 0a84d98
  39. Encoding settings                        : cabac=1 / ref=3 / deblock=1:-1:-1 / analyse=0x1:0x111 / me=hex / subme=8 / psy=1 / psy_rd=1.00:0.15 / mixed_ref=1 / me_range=16 / chroma_me=1 / trellis=2 / 8x8dct=0 / cqm=0 / deadzone=21,11 / fast_pskip=1 / chroma_qp_offset=-3 / threads=22 / lookahead_threads=3 / sliced_threads=0 / nr=0 / decimate=1 / interlaced=0 / bluray_compat=0 / constrained_intra=0 / bframes=3 / b_pyramid=2 / b_adapt=1 / b_bias=0 / direct=3 / weightb=1 / open_gop=0 / weightp=2 / keyint=48 / keyint_min=25 / scenecut=0 / intra_refresh=0 / rc_lookahead=50 / rc=abr / mbtree=1 / bitrate=4572 / ratetol=1.0 / qcomp=0.60 / qpmin=0 / qpmax=69 / qpstep=4 / vbv_maxrate=7050 / vbv_bufsize=21150 / nal_hrd=none / filler=0 / ip_ratio=1.40 / aq=1:1.00
  40. Default                                  : Yes
  41. Forced                                   : No
  42.  
  43. Audio
  44. ID                                       : 2
  45. Format                                   : AAC LC
  46. Format/Info                              : Advanced Audio Codec Low Complexity
  47. Codec ID                                 : A_AAC-2
  48. Duration                                 : 1 h 44 min
  49. Bit rate                                 : 128 kb/s
  50. Channel(s)                               : 2 channels
  51. Channel layout                           : L R
  52. Sampling rate                            : 48.0 kHz
  53. Frame rate                               : 46.875 FPS (1024 SPF)
  54. Compression mode                         : Lossy
  55. Stream size                              : 95.9 MiB (3%)
  56. Language                                 : French
  57. Default                                  : Yes
  58. Forced                                   : No
  59.  
  60. Text #1
  61. ID                                       : 3
  62. Format                                   : UTF-8
  63. Codec ID                                 : S_TEXT/UTF8
  64. Codec ID/Info                            : UTF-8 Plain Text
  65. Duration                                 : 1 h 38 min
  66. Bit rate                                 : 77 b/s
  67. Count of elements                        : 1447
  68. Stream size                              : 56.2 KiB (0%)
  69. Language                                 : German
  70. Default                                  : No
  71. Forced                                   : No
  72.  
  73. Text #2
  74. ID                                       : 4
  75. Format                                   : UTF-8
  76. Codec ID                                 : S_TEXT/UTF8
  77. Codec ID/Info                            : UTF-8 Plain Text
  78. Duration                                 : 1 h 42 min
  79. Bit rate                                 : 60 b/s
  80. Count of elements                        : 1481
  81. Stream size                              : 45.8 KiB (0%)
  82. Language                                 : English
  83. Default                                  : Yes
  84. Forced                                   : No
  85.  
  86. Text #3
  87. ID                                       : 5
  88. Format                                   : UTF-8
  89. Codec ID                                 : S_TEXT/UTF8
  90. Codec ID/Info                            : UTF-8 Plain Text
  91. Duration                                 : 1 h 39 min
  92. Bit rate                                 : 80 b/s
  93. Count of elements                        : 1388
  94. Stream size                              : 58.5 KiB (0%)
  95. Language                                 : Spanish
  96. Default                                  : No
  97. Forced                                   : No
  98.  
  99. Text #4
  100. ID                                       : 6
  101. Format                                   : UTF-8
  102. Codec ID                                 : S_TEXT/UTF8
  103. Codec ID/Info                            : UTF-8 Plain Text
  104. Duration                                 : 1 h 39 min
  105. Bit rate                                 : 67 b/s
  106. Count of elements                        : 1301
  107. Stream size                              : 48.8 KiB (0%)
  108. Language                                 : Turkish
  109. Default                                  : No
  110. Forced                                   : No
  111.  
  112.  
  113.