1. A.Swan.Lake.by.Alexander.Ekman.2014.1080p.WEBRip.AAC2.0.x264-CANDY.mkv
  2. General
  3. Unique ID                                : 104806288305565358676749428716442382154 (0x4ED8F4F77306C63A79ADEF1680D66F4A)
  4. Complete name                            : D:\A.Swan.Lake.by.Alexander.Ekman.2014.1080p.WEBRip.AAC2.0.x264-CANDY.mkv
  5. Format                                   : Matroska
  6. Format version                           : Version 4
  7. File size                                : 3.60 GiB
  8. Duration                                 : 1 h 37 min
  9. Overall bit rate                         : 5 301 kb/s
  10. Encoded date                             : UTC 2022-11-24 10:58:18
  11. Writing application                      : mkvmerge v72.0.0 ('Minuano (Six-eight)') 64-bit
  12. Writing library                          : libebml v1.4.4 + libmatroska v1.7.1
  13.  
  14. Video
  15. ID                                       : 1
  16. Format                                   : AVC
  17. Format/Info                              : Advanced Video Codec
  18. Format profile                           : High@L3.1
  19. Format settings                          : CABAC / 1 Ref Frames
  20. Format settings, CABAC                   : Yes
  21. Format settings, Reference frames        : 1 frame
  22. Format settings, GOP                     : M=1, N=50
  23. Codec ID                                 : V_MPEG4/ISO/AVC
  24. Duration                                 : 1 h 37 min
  25. Bit rate                                 : 5 000 kb/s
  26. Width                                    : 1 920 pixels
  27. Height                                   : 1 080 pixels
  28. Display aspect ratio                     : 16:9
  29. Frame rate mode                          : Constant
  30. Frame rate                               : 25.000 FPS
  31. Color space                              : YUV
  32. Chroma subsampling                       : 4:2:0
  33. Bit depth                                : 8 bits
  34. Scan type                                : Progressive
  35. Bits/(Pixel*Frame)                       : 0.096
  36. Stream size                              : 3.38 GiB (94%)
  37. Writing library                          : x264 core 148
  38. Encoding settings                        : cabac=1 / ref=1 / deblock=1:0:0 / analyse=0x3:0x113 / me=hex / subme=6 / psy=1 / psy_rd=1.00:0.00 / mixed_ref=0 / me_range=16 / chroma_me=1 / trellis=1 / 8x8dct=1 / cqm=0 / deadzone=21,11 / fast_pskip=1 / chroma_qp_offset=-2 / threads=34 / lookahead_threads=5 / sliced_threads=0 / nr=0 / decimate=1 / interlaced=0 / bluray_compat=0 / constrained_intra=0 / bframes=0 / weightp=1 / keyint=250 / keyint_min=25 / scenecut=0 / intra_refresh=0 / rc_lookahead=30 / rc=abr / mbtree=1 / bitrate=5000 / ratetol=1.0 / qcomp=0.60 / qpmin=0 / qpmax=69 / qpstep=4 / vbv_maxrate=6000 / vbv_bufsize=7500 / nal_hrd=none / filler=0 / ip_ratio=1.40 / aq=1:1.00
  39. Language                                 : English
  40. Default                                  : Yes
  41. Forced                                   : No
  42.  
  43. Audio
  44. ID                                       : 2
  45. Format                                   : AAC LC
  46. Format/Info                              : Advanced Audio Codec Low Complexity
  47. Codec ID                                 : A_AAC-2
  48. Duration                                 : 1 h 37 min
  49. Bit rate                                 : 320 kb/s
  50. Channel(s)                               : 2 channels
  51. Channel layout                           : L R
  52. Sampling rate                            : 48.0 kHz
  53. Frame rate                               : 46.875 FPS (1024 SPF)
  54. Compression mode                         : Lossy
  55. Stream size                              : 222 MiB (6%)
  56. Language                                 : English
  57. Default                                  : Yes
  58. Forced                                   : No
  59.  
  60.  
  61.